(Orchestral) Jean-Philippe Rameau - Les Indes Galantes, Suite (Orchestra of the Eighteenth Century, Frans Bruggen [Brüggen]) - 2006, FLAC (image+.cue) lossless


 

[Цитировать]

Jean-Philippe Rameau - Les Indes Galantes (Suite)Orchestra of the Eighteenth Century | Frans Brüggen Жанр: Orchestral
Страна-производитель диска: EU
Год издания диска: 2006
Издатель (лейбл): Decca
Номер по каталогу: 475 7780
Дата записи: 1992
Аудиокодек: FLAC
Тип рипа: image+.cue
Битрейт аудио: lossless
Продолжительность: 43:49
Источник: скачано с odeonmusic
Наличие сканов в содержимом раздачи: да
Треклист:
1 Prologue. Ouverture 2:55
2 Entrée des Quatre Nations 2:37
3 Air pour les esclaves africains 1:32
4 Air vif 2:01
5 Musette en rondeau 1:20
6 Air pour les amants et les amantes 1:08
7 Air pour deux Polonais 1:47
8 Menuets I - II 2:35
9 Contredanse 1:57
10 Le Turc généreux. Ritournelle pour le Turc généreux 0:59
11 Forlane des matelots 1:58
12 Tambourins I - II 1:40
13 Les Incas du Pérou. Ritournelle pour les Incas de Pérou 1:07
14 Air des Incas 2:13
15 Air pour l'adoration de soleil 2:23
16 Gavottes I - II 2:38
17 Les Fleurs. Ritournelle pour la fête persane 1:04
18 Marche 2:03
19 Air pour Zéphire 1:06
20 Air pour Borée et la Rose 1:31
21 Les Sauvages. Air pour les Sauvages 1:40
22 Chaconne 5:29
Исполнители:
Orchestra of the Eighteenth Century
Frans Brüggen - conductor

Лог создания рипа

Exact Audio Copy V1.0 beta 3 from 29. August 2011
EAC extraction logfile from 3. May 2013, 17:29
Frans Brüggen / Rameau - Les Indes Galantes, Suite - Frans Brüggen
Used drive : TSSTcorpCDDVDW SH-222BB Adapter: 2 ID: 1
Read mode : Secure
Utilize accurate stream : Yes
Defeat audio cache : Yes
Make use of C2 pointers : No
Read offset correction : 6
Overread into Lead-In and Lead-Out : No
Fill up missing offset samples with silence : Yes
Delete leading and trailing silent blocks : No
Null samples used in CRC calculations : Yes
Used interface : Native Win32 interface for Win NT & 2000
Used output format : User Defined Encoder
Selected bitrate : 1024 kBit/s
Quality : High
Add ID3 tag : No
Command line compressor : C:\Program Files\Exact Audio Copy\Flac\flac.exe
Additional command line options : -8 -V -T "TITLE=%title%" -T "ARTIST=%artist%" -T "ALBUMARTIST=%albumartist%" -T "ALBUM=%albumtitle%" -T "DATE=%year%" -T "TRACKNUMBER=%tracknr%" -T "TRACKTOTAL=%numtracks%" -T "GENRE=%genre%" -T "COMMENT=%comment%" -T "PERFORMER=%albuminterpret%" -T "COMPOSER=%composer%" %source% -o %dest%
TOC of the extracted CD
Track | Start | Length | Start sector | End sector
---------------------------------------------------------
1 | 0:00.33 | 2:55.50 | 33 | 13207
2 | 2:56.08 | 2:37.25 | 13208 | 25007
3 | 5:33.33 | 1:32.00 | 25008 | 31907
4 | 7:05.33 | 2:01.00 | 31908 | 40982
5 | 9:06.33 | 1:20.00 | 40983 | 46982
6 | 10:26.33 | 1:08.50 | 46983 | 52132
7 | 11:35.08 | 1:47.50 | 52133 | 60207
8 | 13:22.58 | 2:35.50 | 60208 | 71882
9 | 15:58.33 | 1:57.00 | 71883 | 80657
10 | 17:55.33 | 0:59.00 | 80658 | 85082
11 | 18:54.33 | 1:58.50 | 85083 | 93982
12 | 20:53.08 | 1:40.25 | 93983 | 101507
13 | 22:33.33 | 1:07.00 | 101508 | 106532
14 | 23:40.33 | 2:13.00 | 106533 | 116507
15 | 25:53.33 | 2:23.00 | 116508 | 127232
16 | 28:16.33 | 2:38.00 | 127233 | 139082
17 | 30:54.33 | 1:04.50 | 139083 | 143932
18 | 31:59.08 | 2:03.25 | 143933 | 153182
19 | 34:02.33 | 1:06.62 | 153183 | 158194
20 | 35:09.20 | 1:31.13 | 158195 | 165032
21 | 36:40.33 | 1:40.00 | 165033 | 172532
22 | 38:20.33 | 5:30.00 | 172533 | 197282
Range status and errors
Selected range
Filename G:\Ripped general\[8886] Rameau – Les Indes Galantes, Suite – Frans Brüggen\Rameau - Les Indes Galantes, Suite - Frans Brüggen.wav
Peak level 92.8 %
Extraction speed 2.3 X
Range quality 99.9 %
Test CRC 11FD58D0
Copy CRC 11FD58D0
Copy OK
No errors occurred
AccurateRip summary
Track 1 accurately ripped (confidence 2) [C3997B44] (AR v2)
Track 2 accurately ripped (confidence 2) [AA8DE7FB] (AR v2)
Track 3 accurately ripped (confidence 2) [4FE19C3E] (AR v2)
Track 4 accurately ripped (confidence 2) [E17B81B4] (AR v2)
Track 5 accurately ripped (confidence 2) [E80234FF] (AR v2)
Track 6 accurately ripped (confidence 2) [849A2F81] (AR v2)
Track 7 accurately ripped (confidence 2) [5E77DFE1] (AR v2)
Track 8 accurately ripped (confidence 2) [8D1598A5] (AR v2)
Track 9 accurately ripped (confidence 2) [AF4C4F66] (AR v2)
Track 10 accurately ripped (confidence 2) [F4E8D252] (AR v2)
Track 11 accurately ripped (confidence 2) [0282B63F] (AR v2)
Track 12 accurately ripped (confidence 2) [AA054C04] (AR v2)
Track 13 accurately ripped (confidence 2) [7D8E74D1] (AR v2)
Track 14 accurately ripped (confidence 2) [9719B5B0] (AR v2)
Track 15 accurately ripped (confidence 2) [4086E2F0] (AR v2)
Track 16 accurately ripped (confidence 2) [2C56CF06] (AR v2)
Track 17 accurately ripped (confidence 2) [F9EE96DB] (AR v2)
Track 18 accurately ripped (confidence 2) [5F9CC124] (AR v2)
Track 19 accurately ripped (confidence 2) [25961860] (AR v2)
Track 20 accurately ripped (confidence 2) [C7156856] (AR v2)
Track 21 accurately ripped (confidence 2) [6CA843CF] (AR v2)
Track 22 accurately ripped (confidence 2) [59BA2B32] (AR v2)
All tracks accurately ripped
End of status report

Лог проверки качества

AUDIOCHECKER v2.0 beta (build 457) - by Dester - opdester@freemail.hu
~~~~~~~~~~~~~~~~~~~~~~~~~~~~~~~~~~
-=== DO NOT EDIT THIS FILE! ===-
Path: ...\Rameau - Les Indes Galantes (Bruggen)
1 -=- Rameau - Les Indes Galantes, Suite - Frans Bruggen.flac -=- CDDA (100%)
88485732



Показать сообщения:    

Текущее время: 10-Дек 13:46

Часовой пояс: UTC + 3


Вы не можете начинать темы
Вы не можете отвечать на сообщения
Вы не можете редактировать свои сообщения
Вы не можете удалять свои сообщения
Вы не можете голосовать в опросах
Вы не можете прикреплять файлы к сообщениям
Вы не можете скачивать файлы