(Classical, 20th century) Gerard Grisey - Le Temps et l'Ecume; Les Chants de l'Amour - Ensemble S, WDR Sinfonieorchester Koln, Emilio Pomarico, Schola Heidelberg, Walter Nussbaum - 2008, FLAC (image+.cue) lossless


 

[Цитировать]

Gérard Grisey - Le Temps et l'Écume; Les Chants de l'Amour - Ensemble S, WDR Sinfonieorchester Köln, Emilio Pomárico, Schola Heidelberg, Walter Nußbaum
Жанр: Classical, 20th century
Страна-производитель диска: Germany
Год издания диска: 2008
Издатель (лейбл): Kairos
Номер по каталогу: 0012752KAI
Дата записи: 2007
Аудиокодек: FLAC
Тип рипа: image+.cue
Битрейт аудио: lossless
Продолжительность: 55:51
Источник: собственный рип
Наличие сканов в содержимом раздачи: да
Треклист:
Gérard Grisey (1946-1998)
[1] Le Temps et l'Écume (1988-89)
für 4 Schlagzeuger, 2 Synthesizer und Kammerorchester
[2]-[6] Les Chants de l'Amour (1982-84)
für 12 Stimmen und Tonband
Исполнители:
Ensemble S [1]
WDR Sinfonieorchester Köln [1]
Emilio Pomárico [1]
Schola Heidelberg [2]-[6]
Walter Nußbaum [2]-[6]

Лог создания рипа

Exact Audio Copy V1.0 beta 3 from 29. August 2011
EAC extraction logfile from 12. October 2014, 20:58
SCHOLA HEIDELBERG, Walter Nussbaum / Grisey - Le Temps et l'Ecume; Les Chants de l'Amour
Used drive : HL-DT-STDVDRAM GU70N Adapter: 0 ID: 0
Read mode : Secure
Utilize accurate stream : Yes
Defeat audio cache : Yes
Make use of C2 pointers : No
Read offset correction : 48
Overread into Lead-In and Lead-Out : No
Fill up missing offset samples with silence : Yes
Delete leading and trailing silent blocks : No
Null samples used in CRC calculations : Yes
Used interface : Native Win32 interface for Win NT & 2000
Used output format : User Defined Encoder
Selected bitrate : 128 kBit/s
Quality : High
Add ID3 tag : No
Command line compressor : C:\Program Files (x86)\Exact Audio Copy\Flac\flac.exe
Additional command line options : -V -8 -T "Date=%year%" -T "Genre=%genre%" %source%
TOC of the extracted CD
Track | Start | Length | Start sector | End sector
---------------------------------------------------------
1 | 0:00.00 | 20:32.64 | 0 | 92463
2 | 20:32.64 | 8:19.25 | 92464 | 129913
3 | 28:52.14 | 7:23.56 | 129914 | 163194
4 | 36:15.70 | 5:09.40 | 163195 | 186409
5 | 41:25.35 | 10:05.07 | 186410 | 231791
6 | 51:30.42 | 4:17.12 | 231792 | 251078
Range status and errors
Selected range
Filename C:\temp\Grisey - Le Temps et l'Ecume; Les Chants de l'Amour\Grisey - Le Temps et l'Ecume; Les Chants de l'Amour.wav
Peak level 97.9 %
Extraction speed 2.0 X
Range quality 100.0 %
Test CRC C15D7A5A
Copy CRC C15D7A5A
Copy OK
No errors occurred
AccurateRip summary
Track 1 accurately ripped (confidence 2) [9861CAAA] (AR v2)
Track 2 accurately ripped (confidence 2) [61FBB318] (AR v2)
Track 3 accurately ripped (confidence 2) [5B930B73] (AR v2)
Track 4 accurately ripped (confidence 2) [4261BA4A] (AR v2)
Track 5 accurately ripped (confidence 2) [246E341B] (AR v2)
Track 6 accurately ripped (confidence 2) [B9FEB60D] (AR v2)
All tracks accurately ripped
End of status report
==== Log checksum 1981E8815422496CDAFEC22CD71D6D70564FCD307DD7AACA3F443554548A039E ====



Показать сообщения:    

Текущее время: 10-Дек 15:43

Часовой пояс: UTC + 3


Вы не можете начинать темы
Вы не можете отвечать на сообщения
Вы не можете редактировать свои сообщения
Вы не можете удалять свои сообщения
Вы не можете голосовать в опросах
Вы не можете прикреплять файлы к сообщениям
Вы не можете скачивать файлы