(Oratorio) Blacher - Der Grossinquisitor (Siegmund Nimsgern - Rundfunkchor Leipzig, Jorg-Peter Weigle / Dresdner Philharmonie, Herbert Kegel) - 1998, APE (image+.cue) lossless


Статистика раздачи [Обновить пиров]
Размер:  222 MB   |    Зарегистрирован:  8 месяцев 23 дня   |    Скачан:  0 раз

Полного источника не было: Никогда

 
   
 
 
 

[Цитировать]

Boris Blacher - Der Großinquisitor
Жанр: Oratorio
Страна-производитель диска: Germany
Год издания диска: 1998
Издатель (лейбл): Berlin Classics
Номер по каталогу: 0093782BC
Дата записи: 1986
Аудиокодек: APE
Тип рипа: image+.cue
Битрейт аудио: lossless
Продолжительность: 59'33
Источник: собственный рип
Наличие сканов в содержимом раздачи: да
Треклист:
1. Part I: Nach seiner unendlichen Barmherzigkeit (Choir)
2. Part I: Unmerklich und leise kommt er daher (Choir)
3. Part I: Aus der Menge tont es laut (Choir)
4. Part I: Die stufen des Doms von Sevilla (Choir)
5. Part I: Da schreitet plotet plotzlich uber den weiten Platz (Choir)
6. Part I: All marcia
7. Part I: Einmutig wie von gleichem Willen gelenkt (Choir)
8. Part II: Langsam neigt sich der Tag (Choir)
9. Part II: Bist Du es wirklich (Baritone)
10. Part II: Der furchtbare sind es allein (Baritone, Choir))
11. Part II: Drei Machte sind es allein (Baritone, Choir)
12. Part II: So hore denn (Baritone, Choir)
13. Part II: Du ruhmst Dich Deiner Auserwahlten (Baritone, Choir)
14. Part II: Wisse denn, ich furchte Dich nicht (Baritone, Choir)
Исполнители:
Boris Blacher - Der Großinquisitor
Oratorium by Leo Borchard after Dostojevski, for baritone, choir and orchester
Siegmund Nimsgern, Baritone
Rundfunkchor Leipzig
Jörg-Peter Weigle, Choir Master
Dresdner Philharmonie
Herbert Kegel, Conductor

Лог создания рипа

Exact Audio Copy V1.0 beta 3 from 29. August 2011
EAC extraction logfile from 11. October 2013, 17:31
Blacher / Der Großinquisitor, Kegel 1986
Used drive : TSSTcorpCDDVDW SE-208AB Adapter: 1 ID: 0
Read mode : Secure
Utilize accurate stream : Yes
Defeat audio cache : Yes
Make use of C2 pointers : No
Read offset correction : 6
Overread into Lead-In and Lead-Out : No
Fill up missing offset samples with silence : Yes
Delete leading and trailing silent blocks : No
Null samples used in CRC calculations : Yes
Used interface : Native Win32 interface for Win NT & 2000
Used output format : Monkey's Audio Lossless Encoder
Selected bitrate : High Lossless Compression
Quality : High
Add ID3 tag : Yes
Command line compressor : K:\Program Files (x86)\Exact Audio Copy\Monkeys Audio\Monkey's Audio\MAC.exe
Additional command line options : -6 -V -T "ARTIST=%artist%" -T "TITLE=%title%" -T "ALBUM=%albumtitle%" -T "DATE=%year%" -T "TRACKNUMBER=%tracknr%" -T "GENRE=%genre%" -T "COMMENT=%comment%" -T "BAND=%albuminterpret%" -T "ALBUMARTIST=%albuminterpret%" -T "COMPOSER=%composer%" %haslyrics%--tag-from-file=LYRICS="%lyricsfile%"%haslyrics% -T "DISCNUMBER=%cdnumber%" -T "TOTALDISCS=%totalcds%" -T "TOTALTRACKS=%numtracks%" %hascover%--picture="%coverfile%"%hascover% %source% -o %dest%
TOC of the extracted CD
Track | Start | Length | Start sector | End sector
---------------------------------------------------------
1 | 0:00.00 | 3:32.45 | 0 | 15944
2 | 3:32.45 | 4:22.42 | 15945 | 35636
3 | 7:55.12 | 2:33.52 | 35637 | 47163
4 | 10:28.64 | 6:20.21 | 47164 | 75684
5 | 16:49.10 | 4:25.07 | 75685 | 95566
6 | 21:14.17 | 0:42.63 | 95567 | 98779
7 | 21:57.05 | 1:55.52 | 98780 | 107456
8 | 23:52.57 | 2:51.53 | 107457 | 120334
9 | 26:44.35 | 4:59.40 | 120335 | 142799
10 | 31:44.00 | 5:42.60 | 142800 | 168509
11 | 37:26.60 | 6:18.10 | 168510 | 196869
12 | 43:44.70 | 3:24.47 | 196870 | 212216
13 | 47:09.42 | 5:50.35 | 212217 | 238501
14 | 53:00.02 | 6:32.03 | 238502 | 267904
Range status and errors
Selected range
Filename I:\Foobar-EAC\Blacher - Der Großinquisitor, Kegel 1986.wav
Peak level 99.0 %
Extraction speed 4.5 X
Range quality 100.0 %
Test CRC A88635E0
Copy CRC A88635E0
Copy OK
No errors occurred
AccurateRip summary
Track 1 accurately ripped (confidence 1) [E24313EE] (AR v1)
Track 2 accurately ripped (confidence 1) [7A95A32D] (AR v1)
Track 3 accurately ripped (confidence 1) [25A7444C] (AR v1)
Track 4 accurately ripped (confidence 1) [60162E15] (AR v1)
Track 5 accurately ripped (confidence 1) [E9C647A4] (AR v1)
Track 6 accurately ripped (confidence 1) [AF94A94E] (AR v1)
Track 7 accurately ripped (confidence 1) [FFD8DCEF] (AR v1)
Track 8 accurately ripped (confidence 1) [E29717F2] (AR v1)
Track 9 accurately ripped (confidence 1) [478C79ED] (AR v1)
Track 10 accurately ripped (confidence 1) [791666E9] (AR v1)
Track 11 accurately ripped (confidence 1) [CE203E4B] (AR v1)
Track 12 accurately ripped (confidence 1) [F9BE9257] (AR v1)
Track 13 accurately ripped (confidence 1) [6F0DABD6] (AR v1)
Track 14 accurately ripped (confidence 1) [46F23871] (AR v1)
All tracks accurately ripped
End of status report
---- CUETools DB Plugin V2.1.3
[CTDB TOCID: o0k0WoPo1wFg20IaRdARiv.lgM4-] disk not present in database, Submit result: database access error: ExpectationFailed
==== Log checksum 3AE7DA6BF1B0FF64C74BD370CC9437373492447EBE47DA24965974C92BA3AC50 ====

Содержание индексной карты (.CUE)

REM GENRE Oratorio
REM DATE 1986
REM COMMENT YEAR: 1942
PERFORMER "Boris Blacher"
TITLE "Der Großinquisitor, Kegel"
FILE "Blacher - Der Großinquisitor, Kegel 1986.ape" WAVE
TRACK 01 AUDIO
TITLE "01. Nach seiner unendlichen Barmherzigkeit"
INDEX 01 00:00:00
TRACK 02 AUDIO
TITLE "02. Unmerklich und leise kommt er daher"
INDEX 01 03:32:45
TRACK 03 AUDIO
TITLE "03. Aus der Menge tönt es laut"
INDEX 01 07:55:12
TRACK 04 AUDIO
TITLE "04. Die Stufen des Doms von Sevilla"
INDEX 01 10:28:64
TRACK 05 AUDIO
TITLE "05. Da schreitet plötzlich über den weiten Platz"
INDEX 01 16:49:10
TRACK 06 AUDIO
TITLE "06. Alla marcia"
INDEX 01 21:14:17
TRACK 07 AUDIO
TITLE "07. Einmütig, wie von gleichem Willen gelenkt"
INDEX 01 21:57:05
TRACK 08 AUDIO
TITLE "08. Langsam neigt sich der Tag"
INDEX 00 23:47:32
INDEX 01 23:52:57
TRACK 09 AUDIO
TITLE "09. Bist du es wirklich"
INDEX 01 26:44:35
TRACK 10 AUDIO
TITLE "10. Der furchtbare und kluge Geist"
INDEX 01 31:44:00
TRACK 11 AUDIO
TITLE "11. Drei Mächte sind es allein"
INDEX 01 37:26:60
TRACK 12 AUDIO
TITLE "12. So höre denn"
INDEX 01 43:44:70
TRACK 13 AUDIO
TITLE "13. Du rühmst dich deiner Auserwählten"
INDEX 01 47:09:42
TRACK 14 AUDIO
TITLE "14. Wisse denn, ich fürchte dich nicht"
INDEX 01 53:00:02
Доп. информация:
Boris Blacher's oratorio, Der Großinquisitor, was only half finished in 1943.
Having found himself in truly dire straits -- forced to withdraw from musical life thanks to his inclusion on the Nazi register of Jews in music, and hit by a particularly nasty relapse of tuberculosis -- it took the friendship and hospitality of his pupil, Gottfried von Einem, to help him regain his health and confidence, and finish the oratorio.
The text is based on Dostoyevsky's novel, The Brothers Karamazov, illustrating Jesus's return to earth in 16th-century Seville.
The depiction of the heretics burned to the glory of God could not be a clearer reflection of the fate of the Jews at the hands of the Nazis.
Distinct from the other works in Blacher's oeuvre thanks to its seriousness and tonal harmony, Der Großinquisitor also contains elements that are typical of the composer's style, such as terse rhythms and seemingly aimless melodic lines.
The role of the Inquisitor is sung by German bass-baritone, Siegmund Nimsgern, who has enjoyed an international career as an opera singer, performing with the Royal Opera (London), Metropolitan Opera (New York) and the Vienna State Opera, among others.
Alongside him is the Rundfunkchor Leipzig and Dresdner Philharmonie, conducted by Herbert Kegel.
[teatrix.ru].t19341.torrent 
Торрент: Зарегистрирован [ 2016-03-18 12:38 ] · 3305EE3999BD40557BED5F0E534040FD8C16CC4F

Скачать .torrent

Скачать

18 KB

Статус: проверено
Скачан: 0 раз
Размер: 222 MB
terms.php



Быстрый ответ

Имя:

      
Для отправки сообщений необходимо включить JavaScript
Показать сообщения:    

Текущее время: 11-Дек 09:10

Часовой пояс: UTC + 3


Вы можете начинать темы
Вы можете отвечать на сообщения
Вы не можете редактировать свои сообщения
Вы не можете удалять свои сообщения
Вы не можете голосовать в опросах
Вы не можете прикреплять файлы к сообщениям
Вы можете скачивать файлы