К 85-летию Евгения Примакова (сборник фильмов) (Елена Масло, Сергей Кожевников) [28/10/2014, Документалистика, DVB]


Статистика раздачи [Обновить пиров]
Размер:  1.6 GB   |    Зарегистрирован:  9 месяцев 30 дней   |    Скачан:  0 раз

Полного источника не было: Никогда

 
   
 
 
 

[Цитировать]

К 85-летию Евгения Примакова (сборник фильмов)
Дата/Год выпуска: 28/10/2014
Страна: Россия
Жанр: Документалистика
Продолжительность: 44 мин. + 52 мин.
Перевод: Не требуется
Русские субтитры: нет
Режиссер: Елена Масло, Сергей Кожевников
Телеканал: Россия 1, НТВ
Описание: Евгений Максимович Примаков - советский и российский политический и государственный деятель, президент Торгово-промышленной палаты Российской Федерации. Член КПСС с 1959 года. В 1986-1989 годах был кандидатом в члены ЦК КПСС, в 1989 году избран членом ЦК, в 1989-1990 годах - кандидат в члены Политбюро ЦК КПСС.
Занимал должности председателя Совета Союза Верховного Совета СССР (1989-1990), руководителя Центральной службы разведки СССР (1991), директора Службы внешней разведки России (1991-1996), министра иностранных дел РФ (1996-1998), председателя правительства Российской Федерации (1998-1999) и президента Торгово-промышленной палаты Российской Федерации (2001-2011). Депутат Государственной думы РФ третьего созыва (2000-2001).
Доп. информация: Завтра 85 лет исполняется Евгению Примакову, человеку, чья судьба неразрывно связана с историей нашей страны.
Сейчас он президент Торгово-промышленной палаты. А на перечисление всех должностей, постов и званий Примакова не хватило бы времени всего выпуска новостей НТВ. Академик-востоковед, депутат, журналист и дипломат. Он руководил внешней разведкой, министерством иностранных дел, а после дефолта в 98-м возглавил Правительство РФ.
Доверительные отношения сложились у него с такими разными людьми, как Мадлен Олбрайт и Саддам Хусейн. И, несмотря на все жизненные перипетии, Примаков остался самим собой.
Евгений Примаков, президент Торгово-промышленной палаты РФ: «Флюгером я никогда не был и не буду. То есть я отдаю должное тому, что мы пережили, и вижу в этом не только, так сказать, негативную сторону, когда мы говорим о Советском Союзе. В то же самое время жизнь меняется — я не истукан какой-то. Меняются и мои подходы, видения, многие вещи становятся более доступными, чем были раньше, более осмысливаешь то, что происходило раньше. Вот в этой связи меняется, конечно, мировоззрение человека».
День рождения Евгений Примаков встретит на работе, где и будет принимать поздравления.
Список фильмов:
1. 8 1/2 Евгения Примакова
2. Евгений Примаков. 85
Сэмпл: http://multi-up.com/1009314
качество: DVB
формат: TS/M2TS
Видео: AVC, аноморф. 720х576, 4:3, 1331 Кбит/сек, 25 fps
Аудио: MPEG Audio, 160 Кбит/сек, 44 КГц, 2 канала

MediaInfo

Общее
Идентификатор : 16 (0x10)
Полное имя : Yevgeny Primakov. 85.ts
Формат : MPEG-TS
Размер файла : 575 Мбайт
Продолжительность : 51 м.
Режим общего битрейта : Переменный
Общий поток : 1570 Кбит/сек
Видео
Идентификатор : 1403 (0x57B)
Идентификатор меню : 403 (0x193)
Формат : AVC
Формат/Информация : Advanced Video Codec
Профиль формата : Main@L3.0
Параметр CABAC формата : Да
Параметр ReFrames формата : 3 кадра
Идентификатор кодека : 27
Продолжительность : 51 м.
Битрейт : 1331 Кбит/сек
Ширина : 720 пикселей
Высота : 576 пикселей
Соотношение сторон : 4:3
Частота кадров : 25,000 кадров/сек
Стандарт вещания : PAL
Цветовое пространство : YUV
Субдискретизация насыщенности : 4:2:0
Битовая глубина : 8 бит
Тип развёртки : Чересстрочная
Порядок развёртки : Верхнее поле первое
Бит/(Пиксели*Кадры) : 0.128
Размер потока : 487 Мбайт (85%)
Основные цвета : BT.601 PAL
Характеристики трансфера : BT.470 System B, BT.470 System G
Коэффициенты матрицы : BT.601
Аудио
Идентификатор : 2403 (0x963)
Идентификатор меню : 403 (0x193)
Формат : MPEG Audio
Версия формата : Version 1
Профиль формата : Layer 2
Идентификатор кодека : 4
Продолжительность : 51 м.
Вид битрейта : Постоянный
Битрейт : 160 Кбит/сек
Каналы : 2 канала
Частота : 48,0 КГц
Метод сжатия : С потерями
Задержка видео : 66 мс.
Размер потока : 58,5 Мбайт (10%)
Язык : std
Язык, дополнительно : Clean effects

Скриншоты

[teatrix.ru].t19343.torrent 
Торрент: Зарегистрирован [ 2016-03-18 12:41 ] · FD5CCE10402D0ACA5CA1A3BD3CE07F8B73713FE1

Скачать .torrent

Скачать

17 KB

Статус: проверено
Скачан: 0 раз
Размер: 1.6 GB
terms.php



Быстрый ответ

Имя:

      
Для отправки сообщений необходимо включить JavaScript
Показать сообщения:    

Текущее время: 18-Янв 00:25

Часовой пояс: UTC + 3


Вы можете начинать темы
Вы можете отвечать на сообщения
Вы не можете редактировать свои сообщения
Вы не можете удалять свои сообщения
Вы не можете голосовать в опросах
Вы не можете прикреплять файлы к сообщениям
Вы можете скачивать файлы