(Classical) Pérotin · Perotin (The Hilliard Ensemble) · 1989, FLAC (tracks+.cue) lossless


Статистика раздачи [Обновить пиров]
Размер:  289 MB   |    Зарегистрирован:  8 месяцев 24 дня   |    Скачан:  0 раз

Полного источника не было: Никогда

 
   
 
 
 

[Цитировать]

Pérotin
Жанр: Classical
Страна-производитель диска: Germany
Год издания диска: 1989
Издатель (лейбл): ECM New Series
Номер по каталогу: ECM 1385
Дата записи: 1988
Аудиокодек: FLAC
Тип рипа: tracks+.cue
Битрейт аудио: lossless
Продолжительность: 01:07:39
Источник: скачано с what.cd
Наличие сканов в содержимом раздачи: чуть
Исполнители: The Hilliard Ensemble
Треклист:
01. Viderunt omnes (11:36)
02. Veni creator spiritus (7:31)
03. Alleluia. Posui adiutorium (7:35)
04. O Maria Virginei (4:49)
05. Dum sigillum (7:40)
06. Isaias cecinit (1:45)
07. Alleluia. Nativitas (8:32)
08. Beata viscera (6:15)
09. Sederunt principes (11:55)

Лог создания рипа

Exact Audio Copy V0.99 prebeta 5 from 4. May 2009
EAC extraction logfile from 17. October 2009, 0:55
The Hilliard Ensemble / Perotin
Used drive : Optiarc DVD RW AD-7173A Adapter: 4 ID: 1
Read mode : Secure
Utilize accurate stream : Yes
Defeat audio cache : Yes
Make use of C2 pointers : No
Read offset correction : 48
Overread into Lead-In and Lead-Out : No
Fill up missing offset samples with silence : Yes
Delete leading and trailing silent blocks : No
Null samples used in CRC calculations : Yes
Used interface : Native Win32 interface for Win NT & 2000
Gap handling : Appended to previous track
Used output format : User Defined Encoder
Selected bitrate : 1024 kBit/s
Quality : High
Add ID3 tag : No
Command line compressor : C:\bin\FLAC\flac.exe
Additional command line options : -V -8 -T "artist=%a" -T "title=%t" -T "album=%g" -T "date=%y" -T "tracknumber=%n" -T "genre=%m" %s
TOC of the extracted CD
Track | Start | Length | Start sector | End sector
---------------------------------------------------------
1 | 0:00.00 | 11:36.35 | 0 | 52234
2 | 11:36.35 | 7:31.17 | 52235 | 86076
3 | 19:07.52 | 7:35.00 | 86077 | 120201
4 | 26:42.52 | 4:49.28 | 120202 | 141904
5 | 31:32.05 | 7:40.30 | 141905 | 176434
6 | 39:12.35 | 1:44.52 | 176435 | 184286
7 | 40:57.12 | 8:31.63 | 184287 | 222674
8 | 49:29.00 | 6:14.70 | 222675 | 250794
9 | 55:43.70 | 11:54.57 | 250795 | 304401
Track 1
Filename G:\H\Hilliard Ensemble (The)\1989 -- Perotin\01. The Hilliard Ensemble - Viderunt Omnes.wav
Pre-gap length 0:00:02.00
Peak level 85.9 %
Track quality 100.0 %
Test CRC CD9E3286
Copy CRC CD9E3286
Accurately ripped (confidence 4) [DCCA0211]
Copy OK
Track 2
Filename G:\H\Hilliard Ensemble (The)\1989 -- Perotin\02. The Hilliard Ensemble - Veni Creator Spiritus.wav
Pre-gap length 0:00:00.28
Peak level 46.7 %
Track quality 100.0 %
Test CRC 58BE4E78
Copy CRC 58BE4E78
Accurately ripped (confidence 4) [68CBC1EB]
Copy OK
Track 3
Filename G:\H\Hilliard Ensemble (The)\1989 -- Perotin\03. The Hilliard Ensemble - Alleluia Posui Adiutorium.wav
Pre-gap length 0:00:01.35
Peak level 59.0 %
Track quality 100.0 %
Test CRC D231708B
Copy CRC D231708B
Accurately ripped (confidence 4) [A9E6E75F]
Copy OK
Track 4
Filename G:\H\Hilliard Ensemble (The)\1989 -- Perotin\04. The Hilliard Ensemble - O Maria Virginei.wav
Pre-gap length 0:00:00.57
Peak level 47.8 %
Track quality 100.0 %
Test CRC 3F8A6C50
Copy CRC 3F8A6C50
Accurately ripped (confidence 4) [85796605]
Copy OK
Track 5
Filename G:\H\Hilliard Ensemble (The)\1989 -- Perotin\05. The Hilliard Ensemble - Dum Sigillum.wav
Pre-gap length 0:00:00.25
Peak level 55.9 %
Track quality 100.0 %
Test CRC CD16F246
Copy CRC CD16F246
Accurately ripped (confidence 4) [C8A6F999]
Copy OK
Track 6
Filename G:\H\Hilliard Ensemble (The)\1989 -- Perotin\06. The Hilliard Ensemble - Isaias Cecinit.wav
Pre-gap length 0:00:02.43
Peak level 59.1 %
Track quality 100.0 %
Test CRC FA9367E7
Copy CRC FA9367E7
Accurately ripped (confidence 4) [4FABE676]
Copy OK
Track 7
Filename G:\H\Hilliard Ensemble (The)\1989 -- Perotin\07. The Hilliard Ensemble - Alleluia Nativitas.wav
Pre-gap length 0:00:01.37
Peak level 78.1 %
Track quality 100.0 %
Test CRC 6ABA0A42
Copy CRC 6ABA0A42
Accurately ripped (confidence 4) [24280537]
Copy OK
Track 8
Filename G:\H\Hilliard Ensemble (The)\1989 -- Perotin\08. The Hilliard Ensemble - Beata Viscera.wav
Pre-gap length 0:00:00.60
Peak level 75.4 %
Track quality 100.0 %
Test CRC 49E74A86
Copy CRC 49E74A86
Accurately ripped (confidence 4) [796EF27E]
Copy OK
Track 9
Filename G:\H\Hilliard Ensemble (The)\1989 -- Perotin\09. The Hilliard Ensemble - Siderunt Principes.wav
Pre-gap length 0:00:02.25
Peak level 73.3 %
Track quality 100.0 %
Test CRC 04097FC6
Copy CRC 04097FC6
Accurately ripped (confidence 4) [E9D0AE11]
Copy OK
All tracks accurately ripped
No errors occurred
End of status report

Содержание индексной карты (.CUE)

REM DATE 1989
REM DISCID 8D0FDA09
REM COMMENT "ExactAudioCopy v0.99pb5"
PERFORMER "The Hilliard Ensemble"
TITLE "Perotin"
FILE "01. Viderunt omnes.wav" WAVE
TRACK 01 AUDIO
TITLE "Viderunt omnes"
PERFORMER "The Hilliard Ensemble"
ISRC 000000000000
INDEX 01 00:00:00
TRACK 02 AUDIO
TITLE "Veni creator spiritus"
PERFORMER "The Hilliard Ensemble"
ISRC 000000000000
INDEX 00 11:36:07
FILE "02. Veni creator spiritus.wav" WAVE
INDEX 01 00:00:00
TRACK 03 AUDIO
TITLE "Alleluia. Posui adiutorium"
PERFORMER "The Hilliard Ensemble"
ISRC 000000000000
INDEX 00 07:29:57
FILE "03. Alleluia. Posui adiutorium.wav" WAVE
INDEX 01 00:00:00
TRACK 04 AUDIO
TITLE "O Maria Virginei"
PERFORMER "The Hilliard Ensemble"
ISRC 000000000000
INDEX 00 07:34:18
FILE "04. O Maria Virginei.wav" WAVE
INDEX 01 00:00:00
TRACK 05 AUDIO
TITLE "Dum sigillum"
PERFORMER "The Hilliard Ensemble"
ISRC 000000000000
INDEX 00 04:49:03
FILE "05. Dum sigillum.wav" WAVE
INDEX 01 00:00:00
TRACK 06 AUDIO
TITLE "Isaias cecinit"
PERFORMER "The Hilliard Ensemble"
ISRC 000000000000
INDEX 00 07:37:62
FILE "06. Isaias cecinit.wav" WAVE
INDEX 01 00:00:00
TRACK 07 AUDIO
TITLE "Alleluia. Nativitas"
PERFORMER "The Hilliard Ensemble"
ISRC 000000000000
INDEX 00 01:43:15
FILE "07. Alleluia. Nativitas.wav" WAVE
INDEX 01 00:00:00
TRACK 08 AUDIO
TITLE "Beata viscera"
PERFORMER "The Hilliard Ensemble"
ISRC 000000000000
INDEX 00 08:31:03
FILE "08. Beata viscera.wav" WAVE
INDEX 01 00:00:00
TRACK 09 AUDIO
TITLE "Sederunt principes"
PERFORMER "The Hilliard Ensemble"
ISRC 000000000000
INDEX 00 06:12:45
FILE "09. Sederunt principes.wav" WAVE
INDEX 01 00:00:00
[teatrix.ru].t19344.torrent 
Торрент: Зарегистрирован [ 2016-03-18 12:38 ] · 0AA0745B36DCA4EA3766A830FD12310E7E9A41B8

Скачать .torrent

Скачать

12 KB

Статус: проверено
Скачан: 0 раз
Размер: 289 MB
terms.php



Быстрый ответ

Имя:

      
Для отправки сообщений необходимо включить JavaScript
Показать сообщения:    

Текущее время: 11-Дек 13:00

Часовой пояс: UTC + 3


Вы можете начинать темы
Вы можете отвечать на сообщения
Вы не можете редактировать свои сообщения
Вы не можете удалять свои сообщения
Вы не можете голосовать в опросах
Вы не можете прикреплять файлы к сообщениям
Вы можете скачивать файлы