(Classical, sacred) Johann Philipp Förtsch (Fortsch) - Ich freue mich im Herrn: Musica sacra - Monica Mauch, Barbara Bübl (Bubl), Alex Potter, Hans Jorg Mammel, Markus Fraig; L'arpa festante, Rien Voskuilen - 2011, FLAC (image+.cue) lossles


 

[Цитировать]

Johann Philipp Förtsch - Ich freue mich im Herrn: Musica sacra - Monica Mauch, Barbara Bübl, Alex Potter, Hans Jörg Mammel, Markus Fraig; L'arpa festante, Rien Voskuilen
Жанр: Classical, sacred
Страна-производитель диска: Germany
Год издания диска: 2011
Издатель (лейбл): Carus
Номер по каталогу: 83.363
Дата записи: 2009
Аудиокодек: FLAC
Тип рипа: image+.cue
Битрейт аудио: lossless
Продолжительность: 69:44
Источник: собственный рип
Наличие сканов в содержимом раздачи: да
Треклист:
Johann Philipp Förtsch (1652-1732)
[1] Ach, dass die Hulfe aus Zion
[2] Ich weiss, dass mein Erlöser lebt
[3] Verbum caro factum est
[4] Träufelt, ihr Himmel, von oben
[5] Veni Creator Spiritus (Hymnus)
[6] Ich freue mich im Herrn
[7] Lobet den Herren, alle Heiden
[8] Adesto mihi Domine
[9] Herr, wer wird wohnen
[10] Aus der Tiefen
[11] O adoranda trinitas
Исполнители:
Monica Mauch soprano
Barbara Bübl soprano
Alex Potter altus
Hans Jörg Mammel tenore
Markus Fraig basso
L'arpa festante
Rien Voskuilen

Лог создания рипа

Exact Audio Copy V1.0 beta 3 from 29. August 2011
EAC extraction logfile from 12. October 2014, 19:26
L’arpa festante, Rien Voskuilen / Fortsch - Ich freue mich im Herrn
Used drive : HL-DT-STDVDRAM GU70N Adapter: 0 ID: 0
Read mode : Secure
Utilize accurate stream : Yes
Defeat audio cache : Yes
Make use of C2 pointers : No
Read offset correction : 48
Overread into Lead-In and Lead-Out : No
Fill up missing offset samples with silence : Yes
Delete leading and trailing silent blocks : No
Null samples used in CRC calculations : Yes
Used interface : Native Win32 interface for Win NT & 2000
Used output format : User Defined Encoder
Selected bitrate : 128 kBit/s
Quality : High
Add ID3 tag : No
Command line compressor : C:\Program Files (x86)\Exact Audio Copy\Flac\flac.exe
Additional command line options : -V -8 -T "Date=%year%" -T "Genre=%genre%" %source%
TOC of the extracted CD
Track | Start | Length | Start sector | End sector
---------------------------------------------------------
1 | 0:00.00 | 5:37.12 | 0 | 25286
2 | 5:37.12 | 6:21.71 | 25287 | 53932
3 | 11:59.08 | 6:11.08 | 53933 | 81765
4 | 18:10.16 | 3:11.51 | 81766 | 96141
5 | 21:21.67 | 7:51.26 | 96142 | 131492
6 | 29:13.18 | 6:39.52 | 131493 | 161469
7 | 35:52.70 | 6:29.57 | 161470 | 190701
8 | 42:22.52 | 6:54.49 | 190702 | 221800
9 | 49:17.26 | 3:37.64 | 221801 | 238139
10 | 52:55.15 | 7:38.35 | 238140 | 272524
11 | 60:33.50 | 9:08.35 | 272525 | 313659
Range status and errors
Selected range
Filename C:\temp\Fortsch - Ich freue mich im Herrn\Fortsch - Ich freue mich im Herrn.wav
Peak level 97.7 %
Extraction speed 2.2 X
Range quality 100.0 %
Test CRC 212AA860
Copy CRC 212AA860
Copy OK
No errors occurred
AccurateRip summary
Track 1 accurately ripped (confidence 1) [0EC4AB24] (AR v1)
Track 2 accurately ripped (confidence 1) [27D5DEB7] (AR v1)
Track 3 accurately ripped (confidence 1) [97266E89] (AR v1)
Track 4 accurately ripped (confidence 1) [EBCAA3E4] (AR v1)
Track 5 accurately ripped (confidence 1) [6AF4FEE1] (AR v1)
Track 6 accurately ripped (confidence 1) [6B003D35] (AR v1)
Track 7 accurately ripped (confidence 1) [F786B700] (AR v1)
Track 8 accurately ripped (confidence 1) [49C6AB1A] (AR v1)
Track 9 accurately ripped (confidence 1) [A5D9571C] (AR v1)
Track 10 accurately ripped (confidence 1) [B6CAD1F0] (AR v1)
Track 11 accurately ripped (confidence 1) [C27799E3] (AR v1)
All tracks accurately ripped
End of status report
==== Log checksum 422D3FC09ACB458C4E41846D3B68824C45A5B936DB59621BD800F806ADB997B7 ====



Показать сообщения:    

Текущее время: 09-Дек 14:42

Часовой пояс: UTC + 3


Вы не можете начинать темы
Вы не можете отвечать на сообщения
Вы не можете редактировать свои сообщения
Вы не можете удалять свои сообщения
Вы не можете голосовать в опросах
Вы не можете прикреплять файлы к сообщениям
Вы не можете скачивать файлы