(Classical) Вильгельм Рейнгард Бергер – Вариации и фуга для оркестра, op. 97; Серенада для духовых, op. 102 / Wilhelm Reinhard Berger – Variations & Fuge for Orchester; Wind Serenade (Jost Michaels) - 1994, FLAC (image+.cue) lossless


 

[Цитировать]

Вильгельм Рейнгард Бергер – Вариации и фуга для оркестра, op. 97; Серенада для духовых, op. 102 / Wilhelm Reinhard Berger – Variations & Fuge for Orchester; Wind Serenade (Jost Michaels)
Жанр: Classical
Страна-производитель диска: Австрия
Год издания диска: 1994
Издатель (лейбл): KOCH Schwann
Номер по каталогу: 3-1072-2
Дата записи: 11 марта 1986 г. (Серенада); 16 — 18 сентября 1987 г. и 19 мая 1988 г. (Вариации и фуга), Бамберг.
Аудиокодек: FLAC
Тип рипа: image+.cue
Битрейт аудио: lossless
Продолжительность: 01:03:41
Источник: odeonmusic
Наличие сканов в содержимом раздачи: да
Треклист:
Вильгельм Рейнгард Бергер (1861 — 1911).
Вариации и фуга на собственную тему f-moll для оркестра, op. 97 (1907).
01. Тема. Langsam. — [02:36].
02. — Вариация I. Dasselbe Tempo. — [02:35].
03. — Вариация II. Lebhaft. — [01:11].
04. — Вариация III. Etwas weniger lebhaft. — [01:34].
05. — Вариация IV. Lebhaft und mit Humor. — [01:12].
06. — Вариация V. Lebhafter. — [01:17].
07. — Вариация VI. Lebhaft. — [01:07].
08. — Вариация VII. Äusserst lebhaft. — [01:38].
09. — Вариация VIII. Langsam. — [04:03].
10. — Вариация IX. Lebhaft und energisch. — [01:28].
11. — Вариация X. Weniger lebhaft. — [02:47].
12. — Вариация XI. Langsam. — [03:39].
13. — Переход (Überleitung). [Памяти Рихарда Мюльфельда.] — [05:08].
14. — Фуга. Lebhaft [07:30].
Серенада F-dur для двенадцати духовых инструментов (двух флейт, двух гобоев, двух кларнетов, двух фаготов и четырех валторн), op. 102 (1910).
15. I. Moderato [05:58].
16. II. Скерцо [03:27].
17. III. Менуэт. Grazioso [05:30].
18. IV. Романс. Adagio [07:13].
19. V. Finale. Vivace [03:35].
Исполнители:
Bamberger Symphoniker.
Дирижер Jost Michaels.

Лог создания рипа

Exact Audio Copy V1.0 beta 3 from 29. August 2011
EAC extraction logfile from 6. December 2012, 22:24
Jost Michaels / Wilhelm Berger - Orchestral works - Jost Michaels
Used drive : TSSTcorpCDDVDW SH-222BB Adapter: 2 ID: 1
Read mode : Secure
Utilize accurate stream : Yes
Defeat audio cache : Yes
Make use of C2 pointers : No
Read offset correction : 6
Overread into Lead-In and Lead-Out : No
Fill up missing offset samples with silence : Yes
Delete leading and trailing silent blocks : No
Null samples used in CRC calculations : Yes
Used interface : Native Win32 interface for Win NT & 2000
Used output format : User Defined Encoder
Selected bitrate : 1024 kBit/s
Quality : High
Add ID3 tag : No
Command line compressor : C:\Program Files\Exact Audio Copy\Flac\flac.exe
Additional command line options : -8 -V -T "TITLE=%title%" -T "ARTIST=%artist%" -T "ALBUMARTIST=%albumartist%" -T "ALBUM=%albumtitle%" -T "DATE=%year%" -T "TRACKNUMBER=%tracknr%" -T "TRACKTOTAL=%numtracks%" -T "GENRE=%genre%" -T "COMMENT=%comment%" -T "PERFORMER=%albuminterpret%" -T "COMPOSER=%composer%" %source% -o %dest%
TOC of the extracted CD
Track | Start | Length | Start sector | End sector
---------------------------------------------------------
1 | 0:00.00 | 2:36.60 | 0 | 11759
2 | 2:36.60 | 2:35.17 | 11760 | 23401
3 | 5:12.02 | 1:10.60 | 23402 | 28711
4 | 6:22.62 | 1:33.28 | 28712 | 35714
5 | 7:56.15 | 1:11.57 | 35715 | 41096
6 | 9:07.72 | 1:17.20 | 41097 | 46891
7 | 10:25.17 | 1:07.10 | 46892 | 51926
8 | 11:32.27 | 1:37.65 | 51927 | 59266
9 | 13:10.17 | 4:02.58 | 59267 | 77474
10 | 17:13.00 | 1:29.35 | 77475 | 84184
11 | 18:42.35 | 2:46.32 | 84185 | 96666
12 | 21:28.67 | 3:38.38 | 96667 | 113054
13 | 25:07.30 | 5:08.70 | 113055 | 136224
14 | 30:16.25 | 7:37.15 | 136225 | 170514
15 | 37:53.40 | 6:02.47 | 170515 | 197711
16 | 43:56.12 | 3:29.43 | 197712 | 213429
17 | 47:25.55 | 5:33.12 | 213430 | 238416
18 | 52:58.67 | 7:15.68 | 238417 | 271109
19 | 60:14.60 | 3:37.40 | 271110 | 287424
Range status and errors
Selected range
Filename G:\Ripped general\[1446] Wilhelm Berger – Orchestral works – Jost Michaels\Wilhelm Berger - Orchestral works - Jost Michaels.wav
Peak level 98.9 %
Extraction speed 4.3 X
Range quality 100.0 %
Test CRC D903AA6D
Copy CRC D903AA6D
Copy OK
No errors occurred
AccurateRip summary
Track 1 not present in database
Track 2 not present in database
Track 3 not present in database
Track 4 not present in database
Track 5 not present in database
Track 6 not present in database
Track 7 not present in database
Track 8 not present in database
Track 9 not present in database
Track 10 not present in database
Track 11 not present in database
Track 12 not present in database
Track 13 not present in database
Track 14 not present in database
Track 15 not present in database
Track 16 not present in database
Track 17 not present in database
Track 18 not present in database
Track 19 not present in database
None of the tracks are present in the AccurateRip database
End of status report

Содержание индексной карты (.CUE)

REM GENRE Classical
REM DISCID 130EF813
REM COMMENT "ExactAudioCopy v1.0b3"
PERFORMER "Jost Michaels"
TITLE "Wilhelm Berger – Serenade & Variations – Jost Michaels"
FILE "Wilhelm Berger – Serenade & Variations – Jost Michaels.flac" WAVE
TRACK 01 AUDIO
TITLE "Variations and Fugue in F minor, Op. 97 - Thema. Langsam -"
PERFORMER "Jost Michaels"
INDEX 01 00:00:00
TRACK 02 AUDIO
TITLE "Variations and Fugue in F minor, Op. 97 - Var. 1 Dasselbe Tempo -"
PERFORMER "Jost Michaels"
INDEX 01 02:36:60
TRACK 03 AUDIO
TITLE "Variations and Fugue in F minor, Op. 97 - Var. 2 Lebhaft -"
PERFORMER "Jost Michaels"
INDEX 01 05:12:02
TRACK 04 AUDIO
TITLE "Variations and Fugue in F minor, Op. 97 - Var. 3 Etwas weniger lebhaft -"
PERFORMER "Jost Michaels"
INDEX 01 06:22:62
TRACK 05 AUDIO
TITLE "Variations and Fugue in F minor, Op. 97 - Var. 4 Lebhaft und mit Humor -"
PERFORMER "Jost Michaels"
INDEX 01 07:56:15
TRACK 06 AUDIO
TITLE "Variations and Fugue in F minor, Op. 97 - Var. 5 Lebhafter -"
PERFORMER "Jost Michaels"
INDEX 01 09:07:72
TRACK 07 AUDIO
TITLE "Variations and Fugue in F minor, Op. 97 - Var. 6 Lebhaft -"
PERFORMER "Jost Michaels"
INDEX 01 10:25:17
TRACK 08 AUDIO
TITLE "Variations and Fugue in F minor, Op. 97 - Var. 7 Ausserst lebhaft -"
PERFORMER "Jost Michaels"
INDEX 01 11:32:27
TRACK 09 AUDIO
TITLE "Variations and Fugue in F minor, Op. 97 - Var. 8 Langsam -"
PERFORMER "Jost Michaels"
INDEX 01 13:10:17
TRACK 10 AUDIO
TITLE "Variations and Fugue in F minor, Op. 97 - Var. 9 Lebhaft und energisch -"
PERFORMER "Jost Michaels"
INDEX 01 17:13:00
TRACK 11 AUDIO
TITLE "Variations and Fugue in F minor, Op. 97 - Var. 10 Weniger lebhaft -"
PERFORMER "Jost Michaels"
INDEX 01 18:42:35
TRACK 12 AUDIO
TITLE "Variations and Fugue in F minor, Op. 97 - Var. 11 Langsam -"
PERFORMER "Jost Michaels"
INDEX 01 21:28:67
TRACK 13 AUDIO
TITLE "Variations and Fugue in F minor, Op. 97 - Uberleitung -"
PERFORMER "Jost Michaels"
INDEX 01 25:07:30
TRACK 14 AUDIO
TITLE "Variations and Fugue in F minor, Op. 97 - Fuge. Lebhaft (con fuoco)"
PERFORMER "Jost Michaels"
INDEX 01 30:16:25
TRACK 15 AUDIO
TITLE "Wind Serenade in F major, Op. 102 - I. Moderato"
PERFORMER "Jost Michaels"
INDEX 00 37:47:40
INDEX 01 37:53:40
TRACK 16 AUDIO
TITLE "Wind Serenade in F major, Op. 102 - II. Scherzo"
PERFORMER "Jost Michaels"
INDEX 01 43:56:12
TRACK 17 AUDIO
TITLE "Wind Serenade in F major, Op. 102 - III. Menuett. Grazioso"
PERFORMER "Jost Michaels"
INDEX 01 47:25:55
TRACK 18 AUDIO
TITLE "Wind Serenade in F major, Op. 102 - IV. Romanze. Adagio"
PERFORMER "Jost Michaels"
INDEX 01 52:58:67
TRACK 19 AUDIO
TITLE "Wind Serenade in F major, Op. 102 - V. Finale. Vivace"
PERFORMER "Jost Michaels"
INDEX 01 60:14:60
-Вильгельм Рейнгард Бергер. Фортепианный квинтет (Jost Michaels и Verdi-Quartett).



Показать сообщения:    

Текущее время: 06-Дек 22:54

Часовой пояс: UTC + 3


Вы не можете начинать темы
Вы не можете отвечать на сообщения
Вы не можете редактировать свои сообщения
Вы не можете удалять свои сообщения
Вы не можете голосовать в опросах
Вы не можете прикреплять файлы к сообщениям
Вы не можете скачивать файлы