(Classical) Вильгельм Рейнгард Бергер – Фортепианный квинтет / Wilhelm Reinhard Berger – Piano Quintet (Jost Michaels; Verdi-Quartett: Susanne Rabenschlag, Peter Stein, Karin Wolf, Didier Poskin) - 1994, FLAC (image+.cue) lossless


 

[Цитировать]

Вильгельм Рейнгард Бергер – Фортепианный квинтет / Wilhelm Reinhard Berger – Piano Quintet (Jost Michaels; Verdi-Quartett: Susanne Rabenschlag, Peter Stein, Karin Wolf, Didier Poskin)
Жанр: Classical
Страна-производитель диска: Германия
Год издания диска: 1994
Издатель (лейбл): MDG gold
Номер по каталогу: MDG 308 0506-2
Дата записи: май 1993 г., [Бад]-Арользен.
Аудиокодек: FLAC
Тип рипа: image+.cue
Битрейт аудио: lossless
Продолжительность: 00:50:54
Источник: odeonmusic
Наличие сканов в содержимом раздачи: да
Треклист:
Вильгельм Рейнгард Бергер (1861 — 1911).
Фортепианный квинтет f-moll, op. 95 (1904).
01. I. Allegro non troppo ed energico. — [Кода.] Tempo I [17:03].
02. II. Poco adagio [11:14].
03. III. Molto vivace. — [Кода.] Tempo I. — Più vivace [08:32].
04. IV. Allegro moderato e con brio. — [Кода.] Tempo I. — Vivace [13:42].
Исполнители:
Jost Michaels (фортепиано).
Verdi-Quartett:
Susanne Rabenschlag (скрипка),
Peter Stein (скрипка),
Karin Wolf (альт),
Didier Poskin (виолончель).

Лог создания рипа

Exact Audio Copy V1.0 beta 3 from 29. August 2011
EAC extraction logfile from 20. March 2014, 18:43
Verdi-Quartett / Wilhelm Berger - Piano Quintet - Jost Michaels, Verdi-Quartett
Used drive : TSSTcorpCDDVDW SH-222BB Adapter: 2 ID: 1
Read mode : Secure
Utilize accurate stream : Yes
Defeat audio cache : Yes
Make use of C2 pointers : No
Read offset correction : 6
Overread into Lead-In and Lead-Out : No
Fill up missing offset samples with silence : Yes
Delete leading and trailing silent blocks : No
Null samples used in CRC calculations : Yes
Used interface : Native Win32 interface for Win NT & 2000
Used output format : User Defined Encoder
Selected bitrate : 896 kBit/s
Quality : High
Add ID3 tag : No
Command line compressor : C:\Program Files\Exact Audio Copy\FLAC\FLAC.EXE
Additional command line options : -8 -V -T "TITLE=%title%" -T "ARTIST=%artist%" -T "ALBUMARTIST=%albumartist%" -T "ALBUM=%albumtitle%" -T "DATE=%year%" -T "TRACKNUMBER=%tracknr%" -T "TRACKTOTAL=%numtracks%" -T "GENRE=%genre%" -T "COMMENT=%comment%" -T "PERFORMER=%albuminterpret%" -T "COMPOSER=%composer%" %source% -o %dest%
TOC of the extracted CD
Track | Start | Length | Start sector | End sector
---------------------------------------------------------
1 | 0:00.50 | 17:15.55 | 50 | 77729
2 | 17:16.30 | 11:19.67 | 77730 | 128721
3 | 28:36.22 | 8:37.20 | 128722 | 167516
4 | 37:13.42 | 13:42.00 | 167517 | 229166
Range status and errors
Selected range
Filename E:\3000\[3502] Wilhelm Berger – Piano Quintet – Jost Michaels, Verdi-Quartett\Wilhelm Berger - Piano Quintet - Jost Michaels, Verdi-Quartett.wav
Peak level 100.0 %
Extraction speed 2.2 X
Range quality 100.0 %
Test CRC C0D5A329
Copy CRC C0D5A329
Copy OK
No errors occurred
AccurateRip summary
Track 1 accurately ripped (confidence 2) [52592C56] (AR v1)
Track 2 accurately ripped (confidence 2) [283BAA6E] (AR v1)
Track 3 accurately ripped (confidence 2) [3D339A68] (AR v1)
Track 4 accurately ripped (confidence 2) [DBC1C42A] (AR v1)
All tracks accurately ripped
End of status report
==== Log checksum 33A5F8246CF4C82FD516E87636504B8539C56B8A359D4729F9DB1D92211FE6F2 ====

Содержание индексной карты (.CUE)

REM GENRE Classical
REM DATE 1994
REM DISCID 2B0BEF04
REM COMMENT "ExactAudioCopy v1.0b3"
CATALOG 0760623000000
PERFORMER "Jost Michaels & Verdi-Quartett"
TITLE "Wilhelm Berger – Piano Quintet – Jost Michaels & Verdi-Quartett"
FILE "Wilhelm Berger – Piano Quintet – Jost Michaels & Verdi-Quartett.flac" WAVE
TRACK 01 AUDIO
TITLE "Piano Quintet in F minor, Op. 95 - I. Allegro non troppo ed energico"
PERFORMER "Jost Michaels & Verdi-Quartett"
ISRC DEA149450601
INDEX 00 00:00:00
INDEX 01 00:00:50
TRACK 02 AUDIO
TITLE "Piano Quintet in F minor, Op. 95 - II. Poco adagio"
PERFORMER "Jost Michaels & Verdi-Quartett"
ISRC DEA149450602
INDEX 00 17:04:17
INDEX 01 17:16:30
TRACK 03 AUDIO
TITLE "Piano Quintet in F minor, Op. 95 - III. Molto vivace"
PERFORMER "Jost Michaels & Verdi-Quartett"
ISRC DEA149450603
INDEX 00 28:31:12
INDEX 01 28:36:22
TRACK 04 AUDIO
TITLE "Piano Quintet in F minor, Op. 95 - IV. Allegro moderato e con brio"
PERFORMER "Jost Michaels & Verdi-Quartett"
ISRC DEA149450604
INDEX 00 37:09:02
INDEX 01 37:13:42
-Вильгельм Рейнгард Бергер. Вариации и фуга для оркестра; Серенада для духовых (Jost Michaels).



Показать сообщения:    

Текущее время: 09-Дек 12:44

Часовой пояс: UTC + 3


Вы не можете начинать темы
Вы не можете отвечать на сообщения
Вы не можете редактировать свои сообщения
Вы не можете удалять свои сообщения
Вы не можете голосовать в опросах
Вы не можете прикреплять файлы к сообщениям
Вы не можете скачивать файлы