(Classical) Jean Sibelius - The Sibelius Edition, vol. 1-13 (69CD) - 2011, FLAC (image + .cue), lossless


Статистика раздачи [Обновить пиров]
Размер:  19.56 GB   |    Зарегистрирован:  8 месяцев 16 дней   |    Скачан:  1 раз

Полного источника не было: 1 месяц 3 дня

Личеров:  60  [  0 KB/s  ]   Подробная статистика пиров
 
   
 
 
 

[Цитировать]

Johan Christian Julius Sibelius (1865-1957)
The Sibelius Edition
a set of 13 thematically ordered volumes- -Жанр: Classical || Страна-производитель диска: Sweden || Год издания: 2011 || Издатель (лейбл): BIS || Аудиокодек: FLAC || Тип рипа: image + .cue
Битрейт аудио: lossless || Продолжительность: 69CD, 81:49:35
Скачано с boxset.ru (релизер whatever)
MP3-версия: http://teatrix.ru/viewtopic.php?t=4856020
Bonus DVD: http://teatrix.ru/viewtopic.php?t=5075973
Наличие сканов в содержимом раздачи: да
-

[BIS-CD-1900/02] Volume 1 - Tone Poems (5CD) (6:28:56)

Disc 1 (82:27)

01. En saga, Op. 9 [21:51]
Tone Poem for Large Orchestra
1892 - original version (Manuscript / Breitkopf & Härtel)
(Andante assai - Largamente - Allegro - Molto moderato - Allegro - Tranquillo)
From Lemminkäinen Suite, Op. 22
(Four Legends from the Kalevala)
02. I. Lemminkäinen and the Maidens of the Island [14:24]
1896 - original version (?)
(Allegro assai - Allegro)
03. II. Lemminkäinen in Tuonela [22:07]
1896 version - reconstruction based on the performing
edition by Colin Davis (2004) (Manuscript)
(Largamente - Molto lento - Largamente)
04. IV. Lemminkäinen’s Return [11:23]
1896 - original version (?) (Manuscript / Breitkopf & Härtel)
(Allegro con fuoco - Molto vivace)
05. IV. Lemminkäinen’s Return [11:50]
1896, rev. 1897 - intermediate version (?) (Manuscript / Breitkopf & Härtel)
(Allegro con fuoco - Molto vivace - [Quasi presto / Vivacissimo])

LOG

Exact Audio Copy V1.0 beta 3 from 29. August 2011
EAC 抓取日志文件从23. 二月 2013, 0:17
Jean Sibelius / Sibelius Edition, Vol. 1 - Tone Poems (CD 1)
使用驱动器 :SONY DVD RW AD-7240S Adapter: 2 ID: 0
读取模式 : 可靠Secure
使用精确流 : 是
清空音频缓存 : 是
使用 C2 指示器 : 否
读取偏移校正: : 48
读取 Lead-In 和 Lead-Out : 否
用静音填充抓取中丢失偏移的采样 : 是
去除首尾静音块 : 否
在CRC 计算中使用了空样本 : 是
已用接口 : Win NT 及 2000 本地 Win32 接口
所用输出模式: : 用户定义的编码器
已选比特率 : 768 kBit/s
质量 : 高
添加 ID3 标签 : 否
命令行压缩器 : d:\Program Files\Exact Audio Copy\FLAC\FLAC.EXE
附加命令行参数: : -6 -V -T "TOTALTRACKS=%numtracks%" %hascover%--picture="%coverfile%"%hascover% %source% -o %dest%
已抓取 CD 的 TOC
音轨 | 起始 | 长度 | 起始扇区 | 结束扇区
--------------------------------------------
1 | 0:00.00 | 22:08.05 | 0 | 99604
2 | 22:08.05 | 14:31.14 | 99605 | 164943
3 | 36:39.19 | 22:15.62 | 164944 | 265130
4 | 58:55.06 | 11:36.31 | 265131 | 317361
5 | 70:31.37 | 11:55.38 | 317362 | 371024
范围状态及错误
已选择范围
文件名 F:\Music\The Sibelius Edition(BIS 13VOLs)\VOL1 Tone Poems(5CDs)\CD1\Jean Sibelius - Sibelius Edition, Vol. 1 - Tone Poems (CD 1).wav
峰值电平 100.0 %
抓取速度 4.7 X
范围质量 100.0 %
复制 CRC 04F56AD0
复制成功
没有错误发生
状态报告结尾

Disc 2 (76:49)

01. Improvisation / Spring Song [Op. 16] [9:18]
Preliminary version of Spring Song (1894) (Breitkopf & Härtel)
(Moderato e molto sostenuto)
02. The Wood-Nymph, Op. 15 [21:37]
Ballad for Orchestra (1894/95) (Breitkopf & Härtel)
(Alla marcia - Vivace assai - Molto vivace - Tempo I - Moderato - Molto lento)
Ilkka Pälli cello
03. En saga, Op. 9 [18:03]
Tone Poem for Large Orchestra
1892, rev. 1902 - final version (Breitkopf & Härtel)
(Moderato assai - Allegro - Lento assai - Allegro molto - Moderato e tranquillo)
04. Cassazione , Op. 6 [12:14]
1904 – original version (Manuscript / Breitkopf & Härtel)
(Allegro moderato - Molto moderato - Un poco lento - Allegro moderato)
05. Musik zu einer Scène [5:32]
Preliminary version of Dance-Intermezzo (1904) (Manuscript / Breitkopf & Härtel)
(Andante di molto - Allegretto)
06. Finland Awakes [8:27]
Preliminary version of Finlandia (1899 (?)) (Manuscript / Breitkopf & Härtel)
(Allegro moderato - Allegro - Poco allegro - Un poco stretto)

LOG

Exact Audio Copy V1.0 beta 3 from 29. August 2011
EAC 抓取日志文件从23. 二月 2013, 9:53
Lahti Symphony Orchestra & Osmo Vänskä / The Sibelius Edition‧Tone Poems(Disc 2)
使用驱动器 :SONY DVD RW AD-7240S Adapter: 2 ID: 0
读取模式 : 可靠Secure
使用精确流 : 是
清空音频缓存 : 是
使用 C2 指示器 : 否
读取偏移校正: : 48
读取 Lead-In 和 Lead-Out : 否
用静音填充抓取中丢失偏移的采样 : 是
去除首尾静音块 : 否
在CRC 计算中使用了空样本 : 是
已用接口 : Win NT 及 2000 本地 Win32 接口
所用输出模式: : 用户定义的编码器
已选比特率 : 768 kBit/s
质量 : 高
添加 ID3 标签 : 否
命令行压缩器 : d:\Program Files\Exact Audio Copy\FLAC\FLAC.EXE
附加命令行参数: : -6 -V -T "TOTALTRACKS=%numtracks%" %hascover%--picture="%coverfile%"%hascover% %source% -o %dest%
已抓取 CD 的 TOC
音轨 | 起始 | 长度 | 起始扇区 | 结束扇区
--------------------------------------------
1 | 0:00.00 | 9:30.01 | 0 | 42750
2 | 9:30.01 | 21:56.23 | 42751 | 141473
3 | 31:26.24 | 18:18.53 | 141474 | 223876
4 | 49:45.02 | 12:27.44 | 223877 | 279945
5 | 62:12.46 | 5:40.37 | 279946 | 305482
6 | 67:53.08 | 8:56.57 | 305483 | 345739
范围状态及错误
已选择范围
文件名 F:\Music\The Sibelius Edition(BIS 13VOLs)\VOL1 Tone Poems(5CDs)\CD2\Lahti Symphony Orchestra & Osmo Vänskä - The Sibelius Edition‧Tone Poems(Disc 2).wav
峰值电平 100.0 %
抓取速度 4.6 X
范围质量 100.0 %
复制 CRC 81E5ACAE
复制成功
没有错误发生
状态报告结尾

Disc 3 (77:38)

01. Finlandia, Op. 26 [8:28]
1899, rev. 1900 - final version (Breitkopf & Härtel)
(Andante sostenuto - Allegro moderato - Allegro)
02. Spring Song, Op. 16 [7:34]
1894, rev. 1895 (Breitkopf & Härtel)
(Tempo moderato e sostenuto)
03. In memoriam, Op. 59 [11:21]
Funeral March for Large Orchestra
1909, rev. 1910 - final version (Breitkopf & Härtel)
(Grave e maestoso)
Lemminkäinen Suite, Op. 22 [49:08]
(Four Legends from the Kalevala)
04. I. Lemminkäinen and the Maidens of the Island [15:12]
1896, rev. 1897 & 1939 - final version (Breitkopf & Härtel)
(Allegro molto moderato - Allegro moderato)
05. II. The Swan of Tuonela [9:27]
1893, rev. 1897 & 1900 - final [only surviving] version (Breitkopf & Härtel)
(Andante molto sostenuto)
Jukka Hirvikangas cor anglais
06. III. Lemminkäinen in Tuonela [17:41]
1896, rev. 1897 & 1939 - final version (Breitkopf & Härtel)
(Il tempo largamente - Molto lento - Largo assai)
07. IV. Lemminkäinen’s Return [6:27]
1896, rev. 1897 & 1900 - final version (Breitkopf & Härtel)
(Allegro con fuoco (poco a poco più energico) - Quasi Presto - Presto)

LOG

Exact Audio Copy V1.0 beta 3 from 29. August 2011
EAC 抓取日志文件从23. 二月 2013, 12:49
Jean Sibelius / Sibelius Edition, Vol. 1 - Tone Poems (CD 3)
使用驱动器 :SONY DVD RW AD-7240S Adapter: 2 ID: 0
读取模式 : 可靠Secure
使用精确流 : 是
清空音频缓存 : 是
使用 C2 指示器 : 否
读取偏移校正: : 48
读取 Lead-In 和 Lead-Out : 否
用静音填充抓取中丢失偏移的采样 : 是
去除首尾静音块 : 否
在CRC 计算中使用了空样本 : 是
已用接口 : Win NT 及 2000 本地 Win32 接口
所用输出模式: : 用户定义的编码器
已选比特率 : 768 kBit/s
质量 : 高
添加 ID3 标签 : 否
命令行压缩器 : d:\Program Files\Exact Audio Copy\FLAC\FLAC.EXE
附加命令行参数: : -6 -V -T "TOTALTRACKS=%numtracks%" %hascover%--picture="%coverfile%"%hascover% %source% -o %dest%
已抓取 CD 的 TOC
音轨 | 起始 | 长度 | 起始扇区 | 结束扇区
--------------------------------------------
1 | 0:00.00 | 8:39.08 | 0 | 38932
2 | 8:39.08 | 7:45.10 | 38933 | 73817
3 | 16:24.18 | 11:35.18 | 73818 | 125960
4 | 27:59.36 | 15:22.67 | 125961 | 195177
5 | 43:22.28 | 9:37.62 | 195178 | 238514
6 | 53:00.15 | 17:41.10 | 238515 | 318099
7 | 70:41.25 | 6:57.21 | 318100 | 349395
范围状态及错误
已选择范围
文件名 F:\Music\The Sibelius Edition(BIS 13VOLs)\VOL1 Tone Poems(5CDs)\CD3\Jean Sibelius - Sibelius Edition, Vol. 1 - Tone Poems (CD 3).wav
峰值电平 100.0 %
抓取速度 4.6 X
范围质量 99.9 %
复制 CRC F0365253
复制成功
没有错误发生
状态报告结尾

Disc 4 (74:49)

01. Pohjola’s Daughter, Op. 49 [13:10]
Symphonic Fantasia 1906 (Lienau)
(Largo - Moderato - Largamente - Tranquillo molto - Allegro - Largamente)
02. Night Ride And Sunrise, Op. 55 [17:20]
Tone Poem for Orchestra 1908 (Lienau)
(Allegro - Moderato assai - Largamente - Largo (ma non troppo lento))
03. The Dryad, Op. 45 No. 1 [5:07]
Tone Picture for Orchestra 1910 (Breitkopf & Härtel)
(Lento - Meno lento - Un pochettino con moto - Lento assai - Un pochettino con moto - Stretto assai - Commodo - Vivace - Largamente)
04. Dance-Intermezzo, Op. 45 No. 2 [2:41]
1904, rev. 1907 (Breitkopf & Härtel)
(Andante - Commodo e tranquillo - Con moto)
05. The Bard, Op. 64 [7:32]
Tone Poem 1913 (Breitkopf & Härtel)
(Lento assai - Largamente)
Leena Saarenpää harp
06. The Oceanides, Op. 73 [10:03]
Tone Poem for Large Orchestra 1914 – final version (Breitkopf & Härtel)
(Sostenuto assai - Largamente)
07. Tapiola, Op. 112 [17:22]
Symphonic Poem for Orchestra 1926 (Breitkopf & Härtel)
(Largamente - Allegro moderato - Allegro)

LOG

Exact Audio Copy V1.0 beta 3 from 29. August 2011
EAC 抓取日志文件从23. 二月 2013, 13:16
Jean Sibelius / Sibelius Edition, Vol. 1 - Tone Poems (CD 4)
使用驱动器 :SONY DVD RW AD-7240S Adapter: 2 ID: 0
读取模式 : 可靠Secure
使用精确流 : 是
清空音频缓存 : 是
使用 C2 指示器 : 否
读取偏移校正: : 48
读取 Lead-In 和 Lead-Out : 否
用静音填充抓取中丢失偏移的采样 : 是
去除首尾静音块 : 否
在CRC 计算中使用了空样本 : 是
已用接口 : Win NT 及 2000 本地 Win32 接口
所用输出模式: : 用户定义的编码器
已选比特率 : 768 kBit/s
质量 : 高
添加 ID3 标签 : 否
命令行压缩器 : d:\Program Files\Exact Audio Copy\FLAC\FLAC.EXE
附加命令行参数: : -6 -V -T "TOTALTRACKS=%numtracks%" %hascover%--picture="%coverfile%"%hascover% %source% -o %dest%
已抓取 CD 的 TOC
音轨 | 起始 | 长度 | 起始扇区 | 结束扇区
--------------------------------------------
1 | 0:00.00 | 13:26.60 | 0 | 60509
2 | 13:26.60 | 17:35.21 | 60510 | 139655
3 | 31:02.06 | 5:13.48 | 139656 | 163178
4 | 36:15.54 | 2:48.01 | 163179 | 175779
5 | 39:03.55 | 7:38.72 | 175780 | 210201
6 | 46:42.52 | 10:13.43 | 210202 | 256219
7 | 56:56.20 | 17:53.41 | 256220 | 336735
范围状态及错误
已选择范围
文件名 F:\Music\The Sibelius Edition(BIS 13VOLs)\VOL1 Tone Poems(5CDs)\CD4\Jean Sibelius - Sibelius Edition, Vol. 1 - Tone Poems (CD 4).wav
峰值电平 100.0 %
抓取速度 4.6 X
范围质量 100.0 %
复制 CRC BF380C78
复制成功
没有错误发生
状态报告结尾

Disc 5 (77:13)

01. Luonnotar, Op. 70 [8:50]
for Soprano and Orchestra (text: Kalevala) 1913 (Breitkopf & Härtel)
(Tempo moderato - Tranquillo assai)
02. The Oceanides, Op. 73 [7:25]
Tone Poem for Large Orchestra 1914 - Yale version (Manuscript / Breitkopf & Härtel)
(Larghetto)
03. In memoriam, Op. 59 [10:25]
Tone Poem for Large Orchestra 1909 - original version (Manuscript / Breitkopf & Härtel)
(Andante con moto)
04. Cassazione, Op. 6 [12:55]
1904, rev. 1905 – final version (Warner / Chappell Music Finland)
(Allegro - Molto moderato - Un poco lento - Allegro moderato)
Scènes historiques I, Op. 25 [18:09]
Suite for Orchestra 1899, rev. 1911 (Breitkopf & Härtel)
05. I. All’ Overtura [4:37]
(Grave - Allegro - Grave - Allegro)
06. II. Scena [6:11]
(Tempo di menuetto - Allegro moderato - Allegro, poco a poco più)
07. III. Festivo [7:07]
(Tempo di Bolero)
Scènes historiques II, Op. 66 [17:51]
Suite for Orchestra 1912 (Breitkopf & Härtel)

08. I. La Chasse [6:27]
(Andante - Allegro con brio - Doppio più lento)
09. II. Love Song [4:30]
(Largo)
10. III. At the Draw-Bridge [6:37]
(Allegro moderato - Andante)

LOG

Exact Audio Copy V1.0 beta 3 from 29. August 2011
EAC 抓取日志文件从23. 二月 2013, 13:41
Neeme Järvi, Osmo Vänskä & etc. / The Sibelius Edition‧Tone Poems(Disc 5)
使用驱动器 :SONY DVD RW AD-7240S Adapter: 2 ID: 0
读取模式 : 可靠Secure
使用精确流 : 是
清空音频缓存 : 是
使用 C2 指示器 : 否
读取偏移校正: : 48
读取 Lead-In 和 Lead-Out : 否
用静音填充抓取中丢失偏移的采样 : 是
去除首尾静音块 : 否
在CRC 计算中使用了空样本 : 是
已用接口 : Win NT 及 2000 本地 Win32 接口
所用输出模式: : 用户定义的编码器
已选比特率 : 768 kBit/s
质量 : 高
添加 ID3 标签 : 否
命令行压缩器 : d:\Program Files\Exact Audio Copy\FLAC\FLAC.EXE
附加命令行参数: : -6 -V -T "TOTALTRACKS=%numtracks%" %hascover%--picture="%coverfile%"%hascover% %source% -o %dest%
已抓取 CD 的 TOC
音轨 | 起始 | 长度 | 起始扇区 | 结束扇区
--------------------------------------------
1 | 0:00.00 | 9:02.62 | 0 | 40711
2 | 9:02.62 | 7:36.41 | 40712 | 74952
3 | 16:39.28 | 10:37.55 | 74953 | 122782
4 | 27:17.08 | 13:06.71 | 122783 | 181803
5 | 40:24.04 | 4:44.10 | 181804 | 203113
6 | 45:08.14 | 6:18.02 | 203114 | 231465
7 | 51:26.16 | 7:22.49 | 231466 | 264664
8 | 58:48.65 | 6:36.06 | 264665 | 294370
9 | 65:24.71 | 4:37.70 | 294371 | 315215
10 | 70:02.66 | 7:10.09 | 315216 | 347474
范围状态及错误
已选择范围
文件名 F:\Music\The Sibelius Edition(BIS 13VOLs)\VOL1 Tone Poems(5CDs)\CD5\Neeme Järvi, Osmo Vänskä & etc. - The Sibelius Edition‧Tone Poems(Disc 5).wav
峰值电平 99.9 %
抓取速度 4.6 X
范围质量 100.0 %
复制 CRC 9E0A86FF
复制成功
没有错误发生
状态报告结尾
CD1-4; CD5 tracks 1-3: Lahti Symphony Orchestra (Sinfonia Lahti), Osmo Vänskä conductor
CD5 tracks 4-10: Gothenburg Symphony Orchestra, Neeme Järvi conductor

[BIS-CD-1903/05] Volume 2 - Chamber Music I (6CD) (7:17:47)

Disc 1 - String Quartets (74:28)

01. Molto moderato - Scherzo, JS 134 [4:15]
1885 (Manuscript HUL 0541a / Breitkopf & Härtel)
02. [Scherzo] in B minor [0:43]
1885 (completed by Kalevi Aho) (Manuscript HUL 0541a)
String Quartet in E flat major, JS 184 [17:41]
1885 (Warner/ Chappell Music Finland)

03. I. Allegro [8:56]
04. II. Andante molto [2:46]
05. III. Scherzo. Allegretto [1:28]
06. IV. Vivace [4:27]
[Four Themes] [1:52]
1887 (Manuscript HUL 0796/2)

07. I. G major [0:40]
08. II. E flat major [0:19]
09. III. A minor [0:29]
10. IV. E minor [0:16]
[Three Pieces] [3:23]
1888 (Manuscript HUL 0579 / Breitkopf & Härtel)

11. I. Alla marcia in E minor, JS 16 [0:58]
12. II. Presto in F major, JS 154 [0:55]
13. III. Theme and Variations in G minor, JS 197 [1:26]
14. Allegretto in D major, JS 20 [2:12]
1888 (Manuscript HUL 0580 / Breitkopf & Härtel)
15. Andantino in C major, JS 39 [3:06]
1888 (Manuscript HUL 0587/1 / Breitkopf & Härtel)
16. Theme and Variations in C sharp minor, JS 195 [6:20]
1888 (first five bars of variation 3 completed by Kalevi Aho) (Manuscript HUL 0614-0616 / Breitkopf & Härtel)
[33 Small Pieces] [18:08]
1888-89 (Manuscript HUL 0618)

17. 1. E major [0:13]
18. 2. A minor - C major [0:20]
19. 3. F major [0:13]
20. 4. A minor [0:28]
21. 5. A flat major [0:46]
22. 6. F sharp minor [0:25]
23. 7. F major [0:20]
24. 8. G major [0:30]
25. 9. A major [0:20]
26. 10. E flat major [0:49]
27. 11. A major [0:17]
28. 12. C minor [0:52]
29. 13. E major [0:33]
30. 14. C minor - E flat major [0:19]
31. 15. E major [0:18]
32. 16. D minor [0:36]
33. 17. C minor [0:29]
34. 18. B flat major [0:50]
35. 19. D minor [0:29]
36. 20. A major [0:39]
37. 21. A minor [0:42]
38. 22. B minor [1:08]
39. 23. F major [0:58]
40. 24. E flat major [0:42]
41. 25. Moderato. G major [0:23]
42. 26. Allegretto. A minor [0:18]
43. 27. Presto. C major [0:10]
44. 28. Andante. C major [0:26]
45. 29. Andantino. D major [0:17]
46. 30. Alla marcia. E major [0:22]
47. 31. Andante. E flat major [0:20]
48. 32. Andantino. A major [0:17]
49. 33. Moderato. D major [0:55]
50. [Allegro] in G minor [0:32]
1888-89 (Manuscript HUL 0620)
51. Andante - Allegro molto in D major, JS 32 [6:17]
1888-89 (Manuscript HUL 0582 / Breitkopf & Härtel)
52. Andante molto sostenuto in B minor, JS 37 [7:40]
1888-89 (Manuscript HUL 0583–0585 / Breitkopf & Härtel)-Tempera Quartet:
Laura Vikman violin I; Silva Koskela violin II; Tiila Kangas viola; Ulla Lampela cello

LOG

Exact Audio Copy V1.0 beta 3 from 29. August 2011
EAC 抓取日志文件从23. 二月 2013, 15:20
Tempera Quartet / Sibelius¡EString Quartets 1888-1889
使用驱动器 :SONY DVD RW AD-7240S Adapter: 2 ID: 0
读取模式 : 可靠Secure
使用精确流 : 是
清空音频缓存 : 是
使用 C2 指示器 : 否
读取偏移校正: : 48
读取 Lead-In 和 Lead-Out : 否
用静音填充抓取中丢失偏移的采样 : 是
去除首尾静音块 : 否
在CRC 计算中使用了空样本 : 是
已用接口 : Win NT 及 2000 本地 Win32 接口
所用输出模式: : 用户定义的编码器
已选比特率 : 768 kBit/s
质量 : 高
添加 ID3 标签 : 否
命令行压缩器 : d:\Program Files\Exact Audio Copy\FLAC\FLAC.EXE
附加命令行参数: : -6 -V -T "TOTALTRACKS=%numtracks%" %hascover%--picture="%coverfile%"%hascover% %source% -o %dest%
已抓取 CD 的 TOC
音轨 | 起始 | 长度 | 起始扇区 | 结束扇区
--------------------------------------------
1 | 0:00.00 | 10:46.54 | 0 | 48503
2 | 10:46.54 | 7:47.60 | 48504 | 83588
3 | 18:34.39 | 3:18.50 | 83589 | 98488
4 | 21:53.14 | 5:40.35 | 98489 | 124023
5 | 27:33.49 | 1:05.13 | 124024 | 128911
6 | 28:38.62 | 5:40.55 | 128912 | 154466
7 | 34:19.42 | 11:14.74 | 154467 | 205090
8 | 45:34.41 | 8:38.46 | 205091 | 243986
9 | 54:13.12 | 5:47.53 | 243987 | 270064
10 | 60:00.65 | 9:11.04 | 270065 | 311393
范围状态及错误
已选择范围
文件名 F:\Music\The Sibelius Edition(BIS 13VOLs)\VOL2 Chamber Music II(6CDs)\CD2\Tempera Quartet - Sibelius¡EString Quartets 1888-1889.wav
峰值电平 99.8 %
抓取速度 4.5 X
范围质量 100.0 %
复制 CRC 3D1EC574
复制成功
没有错误发生
状态报告结尾

Disc 2 - String Quartets (69:11)

01. Moderato - Allegro appassionato in C sharp minor, JS 131 [10:33]
1888-89 (Manuscript HUL 0600 / Breitkopf & Härtel)
[Three Pieces] [16:35]
1888-89 (Manuscript HUL 0581 / Breitkopf & Härtel)

02. Allegro in E minor, JS 28 [7:42]
03. Allegretto in A major, JS 17 and Più lento in F major, JS 149 [3:14]
04. Adagio in F minor, JS 14 [5:28]
05. Allegretto in B flat major [1:00]
1889 (Manuscript HUL 0621)
06. Fuga för Martin Wegelius, JS 85 [5:28]
1889 (Warner / Chappell Music Finland)-Tempera Quartet:
Laura Vikman violin I; Silva Koskela violin II; Tiila Kangas viola; Ulla Lampela cello

LOG

Exact Audio Copy V1.0 beta 3 from 29. August 2011
EAC 抓取日志文件从23. 二月 2013, 15:20
Tempera Quartet / Sibelius¡EString Quartets 1888-1889
使用驱动器 :SONY DVD RW AD-7240S Adapter: 2 ID: 0
读取模式 : 可靠Secure
使用精确流 : 是
清空音频缓存 : 是
使用 C2 指示器 : 否
读取偏移校正: : 48
读取 Lead-In 和 Lead-Out : 否
用静音填充抓取中丢失偏移的采样 : 是
去除首尾静音块 : 否
在CRC 计算中使用了空样本 : 是
已用接口 : Win NT 及 2000 本地 Win32 接口
所用输出模式: : 用户定义的编码器
已选比特率 : 768 kBit/s
质量 : 高
添加 ID3 标签 : 否
命令行压缩器 : d:\Program Files\Exact Audio Copy\FLAC\FLAC.EXE
附加命令行参数: : -6 -V -T "TOTALTRACKS=%numtracks%" %hascover%--picture="%coverfile%"%hascover% %source% -o %dest%
已抓取 CD 的 TOC
音轨 | 起始 | 长度 | 起始扇区 | 结束扇区
--------------------------------------------
1 | 0:00.00 | 10:46.54 | 0 | 48503
2 | 10:46.54 | 7:47.60 | 48504 | 83588
3 | 18:34.39 | 3:18.50 | 83589 | 98488
4 | 21:53.14 | 5:40.35 | 98489 | 124023
5 | 27:33.49 | 1:05.13 | 124024 | 128911
6 | 28:38.62 | 5:40.55 | 128912 | 154466
7 | 34:19.42 | 11:14.74 | 154467 | 205090
8 | 45:34.41 | 8:38.46 | 205091 | 243986
9 | 54:13.12 | 5:47.53 | 243987 | 270064
10 | 60:00.65 | 9:11.04 | 270065 | 311393
范围状态及错误
已选择范围
文件名 F:\Music\The Sibelius Edition(BIS 13VOLs)\VOL2 Chamber Music II(6CDs)\CD2\Tempera Quartet - Sibelius¡EString Quartets 1888-1889.wav
峰值电平 99.8 %
抓取速度 4.5 X
范围质量 100.0 %
复制 CRC 3D1EC574
复制成功
没有错误发生
状态报告结尾

Disc 3 - String Quartets (78:50)

01. Adagio in D minor, JS 12 [12:15]
1890 (Warner/ Chappell Music Finland)
String Quartet in B flat major, Op. 4 [29:42]
1890 (Warner/ Chappell Music Finland)
02. I. Allegro [7:24]
03. II. Andante sostenuto [7:57]
04. III. Presto [5:23]
05. IV. Allegro [8:40]
String Quartet in D minor, ‘Voces intimae’, Op. 56 [29:48]
1909 (Lienau)

06. I. Andante - Allegro molto moderato [5:53]
07. II. Vivace [2:18]
08. III. Adagio di molto [10:51]
09. IV. Allegretto (ma pesante) [5:34]
10. V. Allegro [4:57]
String Quartet in D minor, ‘Voces intimae’: preliminary ending
11. V. Allegro [from Risoluto, 8 bars before Fig. 11] [0:32]
(Manuscript / Lienau)
12. Andante festivo, JS 34a [5:11]
1922 (Warner/ Chappell Music Finland)-Tempera Quartet:
Laura Vikman violin I; Silva Koskela violin II; Tiila Kangas viola; Ulla Lampela cello

LOG

Exact Audio Copy V1.0 beta 3 from 29. August 2011
EAC 抓取日志文件从23. 二月 2013, 15:42
Tempera Quartet (Laura Vikman (Violin I), Silva Koskela (Violin II), Tiila Kangas (Viola) & Ulla Lampela (cello)) / Jean Sibelius: Voices Intimae - String Quartets 1890-1922
使用驱动器 :SONY DVD RW AD-7240S Adapter: 2 ID: 0
读取模式 : 可靠Secure
使用精确流 : 是
清空音频缓存 : 是
使用 C2 指示器 : 否
读取偏移校正: : 48
读取 Lead-In 和 Lead-Out : 否
用静音填充抓取中丢失偏移的采样 : 是
去除首尾静音块 : 否
在CRC 计算中使用了空样本 : 是
已用接口 : Win NT 及 2000 本地 Win32 接口
所用输出模式: : 用户定义的编码器
已选比特率 : 768 kBit/s
质量 : 高
添加 ID3 标签 : 否
命令行压缩器 : d:\Program Files\Exact Audio Copy\FLAC\FLAC.EXE
附加命令行参数: : -6 -V -T "TOTALTRACKS=%numtracks%" %hascover%--picture="%coverfile%"%hascover% %source% -o %dest%
已抓取 CD 的 TOC
音轨 | 起始 | 长度 | 起始扇区 | 结束扇区
--------------------------------------------
1 | 0:00.00 | 12:31.33 | 0 | 56357
2 | 12:31.33 | 7:30.24 | 56358 | 90131
3 | 20:01.57 | 8:01.71 | 90132 | 126277
4 | 28:03.53 | 5:25.54 | 126278 | 150706
5 | 33:29.32 | 8:55.59 | 150707 | 190890
6 | 42:25.16 | 5:54.43 | 190891 | 217483
7 | 48:19.59 | 2:21.34 | 217484 | 228092
8 | 50:41.18 | 10:59.14 | 228093 | 277531
9 | 61:40.32 | 5:37.19 | 277532 | 302825
10 | 67:17.51 | 5:05.09 | 302826 | 325709
11 | 72:22.60 | 0:40.53 | 325710 | 328762
12 | 73:03.38 | 5:46.37 | 328763 | 354749
范围状态及错误
已选择范围
文件名 F:\Music\The Sibelius Edition(BIS 13VOLs)\VOL2 Chamber Music II(6CDs)\CD3\Tempera Quartet (Laura Vikman (Violin I), Silva Koskela (Violin II), Tiila Kangas (Viola) & Ulla Lampela (cello)) - Jean Sibelius- Voices Intimae - String Quartets 1890-1922.
峰值电平 100.0 %
抓取速度 4.6 X
范围质量 99.9 %
复制 CRC E0DED08A
复制成功
没有错误发生
状态报告结尾

Disc 4 - Piano Trios (72:18)

Trio ‘in G major’, JS 205 [10:05]
for two violins and piano
1883 (Manuscript HUL 0535-0537 / Breitkopf & Härtel)
01. I. Andante - Allegro [4:03]
02. II. Adagio [4:28]
03. III. Vivace [1:27]
04. [Menuetto] in D minor [1:07]
for violin, cello and piano
1882-85 (Manuscript HUL 0538)
05. Menuetto in F major, JS 126 [2:07]
for two violins and piano
1883 (Manuscript HUL 0510 / Breitkopf & Härtel)
06. [Andante] - Adagio - Allegro maestoso [3:53]
for violin, cello and piano
1883-85 (Manuscript HUL 0539)
Piano Trio in A minor, JS 206 [20:59]
1884 (Manuscript HUL 0524-0526 / Breitkopf & Härtel)

07. I. Allegro con brio [6:24]
08. II. Andante [9:13]
09. III. Menuetto [5:12]
10. [Moderato] in A minor [3:09]
for violin, cello and piano
1885 (Manuscript HUL 0540)
11. [Allegro] in C major [1:40]
for violin, cello and piano
1885 (Manuscript HUL 0541a/5)
12. Allegro in D major, JS 27 [3:16]
for violin, cello and piano
1886 (Manuscript HUL 0505-0507 / Breitkopf & Härtel)
13. [Andantino] in A major [2:18]
for violin, cello and piano
1886 (one bar added by Jaakko Kuusisto) (Manuscript HUL 0670/3)
Piano Trio in A minor, ‘Hafträsk’, JS 207 [21:59]
1886 (Manuscript HUL 0527-0529 / Breitkopf & Härtel)

14. I. Allegro maestoso [8:35]
15. II. Andantino [4:20]
16. III. Scherzo. Vivace [2:40]
17. IV. Rondo [6:10]-Jaakko Kuusisto violin
Satu Vänskä violin [1-3, 5]
Marko Ylönen cello [4, 6-17]
Folke Gräsbeck piano

LOG

Exact Audio Copy V1.0 beta 3 from 29. August 2011
EAC 抓取日志文件从23. 二月 2013, 16:44
Jean Sibelius / Sibelius Edition Vol.2-CD4
使用驱动器 :SONY DVD RW AD-7240S Adapter: 2 ID: 0
读取模式 : 可靠Secure
使用精确流 : 是
清空音频缓存 : 是
使用 C2 指示器 : 否
读取偏移校正: : 48
读取 Lead-In 和 Lead-Out : 否
用静音填充抓取中丢失偏移的采样 : 是
去除首尾静音块 : 否
在CRC 计算中使用了空样本 : 是
已用接口 : Win NT 及 2000 本地 Win32 接口
所用输出模式: : 用户定义的编码器
已选比特率 : 768 kBit/s
质量 : 高
添加 ID3 标签 : 否
命令行压缩器 : d:\Program Files\Exact Audio Copy\FLAC\FLAC.EXE
附加命令行参数: : -6 -V -T "TOTALTRACKS=%numtracks%" %hascover%--picture="%coverfile%"%hascover% %source% -o %dest%
已抓取 CD 的 TOC
音轨 | 起始 | 长度 | 起始扇区 | 结束扇区
--------------------------------------------
1 | 0:00.00 | 4:07.62 | 0 | 18586
2 | 4:07.62 | 4:31.63 | 18587 | 38974
3 | 8:39.50 | 1:33.27 | 38975 | 45976
4 | 10:13.02 | 1:11.48 | 45977 | 51349
5 | 11:24.50 | 2:13.30 | 51350 | 61354
6 | 13:38.05 | 4:00.05 | 61355 | 79359
7 | 17:38.10 | 6:31.22 | 79360 | 108706
8 | 24:09.32 | 9:16.28 | 108707 | 150434
9 | 33:25.60 | 5:26.72 | 150435 | 174956
10 | 38:52.57 | 3:14.38 | 174957 | 189544
11 | 42:07.20 | 1:46.62 | 189545 | 197556
12 | 43:54.07 | 3:26.05 | 197557 | 213011
13 | 47:20.12 | 2:25.15 | 213012 | 223901
14 | 49:45.27 | 8:40.65 | 223902 | 262966
15 | 58:26.17 | 4:24.18 | 262967 | 282784
16 | 62:50.35 | 2:43.60 | 282785 | 295069
17 | 65:34.20 | 6:44.55 | 295070 | 325424
范围状态及错误
已选择范围
文件名 F:\Music\The Sibelius Edition(BIS 13VOLs)\VOL2 Chamber Music II(6CDs)\CD4\Jean Sibelius - Sibelius Edition Vol.2-CD4.wav
峰值电平 98.0 %
抓取速度 4.4 X
范围质量 100.0 %
复制 CRC 85C6EE44
复制成功
没有错误发生
状态报告结尾

Disc 5 - Piano Trios (66:39)

Piano Trio in D major, ‘Korpo’, JS 209 [35:51]
1887 (Manuscript HUL 0532-0534 / Breitkopf & Härtel)
01. Allegro moderato [10:50]
02. II. Fantasia. Andante - Adagio - Molto adagio - Andantino - Moderato - Andantino - [Transition] [15:30]
03. III. Finale. Vivace [9:21]
04. Andantino in G minor, JS 43 [1:40]
1887 (Manuscript HUL 0509/1 / Breitkopf & Härtel)
05. [Allegretto] in A flat major [0:46]
1887-88 (Manuscript HUL 0547)
Piano Trio in C major, ‘Lovisa’, JS 208 [15:47]
1888 (Warner / Chappell Music Finland)

06. I. Allegro [6:57]
07. II. Andante - Più lento - Lento [4:04]
08. III. Allegro con brio [4:37]
09. [Allegro] in D minor [6:09]
1889 (completed by Kalevi Aho) (Manuscript HUL 0548)
10. [Allegretto] in E flat major [1:39]
1891-92 (completed by Jaakko Kuusisto) (Manuscript HUL 0419/21)
11. La pompeuse Marche d’Asis, JS 116 [3:21]
1891 (Manuscript HUL 0550)-Jaakko Kuusisto violin
Marko Ylönen cello
Folke Gräsbeck piano

LOG

Exact Audio Copy V1.0 beta 3 from 29. August 2011
EAC 抓取日志文件从23. 二月 2013, 17:03
Jaakko Kuusisto (violin), Marko Ylönen (cello), Folke Gräskeck (piano) / Sibelius: Complete Piano Trios volume 2
使用驱动器 :SONY DVD RW AD-7240S Adapter: 2 ID: 0
读取模式 : 可靠Secure
使用精确流 : 是
清空音频缓存 : 是
使用 C2 指示器 : 否
读取偏移校正: : 48
读取 Lead-In 和 Lead-Out : 否
用静音填充抓取中丢失偏移的采样 : 是
去除首尾静音块 : 否
在CRC 计算中使用了空样本 : 是
已用接口 : Win NT 及 2000 本地 Win32 接口
所用输出模式: : 用户定义的编码器
已选比特率 : 768 kBit/s
质量 : 高
添加 ID3 标签 : 否
命令行压缩器 : d:\Program Files\Exact Audio Copy\FLAC\FLAC.EXE
附加命令行参数: : -6 -V -T "TOTALTRACKS=%numtracks%" %hascover%--picture="%coverfile%"%hascover% %source% -o %dest%
已抓取 CD 的 TOC
音轨 | 起始 | 长度 | 起始扇区 | 结束扇区
--------------------------------------------
1 | 0:00.00 | 10:57.62 | 0 | 49336
2 | 10:57.62 | 15:31.65 | 49337 | 119226
3 | 26:29.52 | 9:32.43 | 119227 | 162169
4 | 36:02.20 | 1:45.50 | 162170 | 170094
5 | 37:47.70 | 0:55.37 | 170095 | 174256
6 | 38:43.32 | 7:03.60 | 174257 | 206041
7 | 45:47.17 | 4:05.68 | 206042 | 224484
8 | 49:53.10 | 4:49.30 | 224485 | 246189
9 | 54:42.40 | 6:16.25 | 246190 | 274414
10 | 60:58.65 | 1:45.70 | 274415 | 282359
11 | 62:44.60 | 3:51.22 | 282360 | 299706
范围状态及错误
已选择范围
文件名 F:\Music\The Sibelius Edition(BIS 13VOLs)\VOL2 Chamber Music II(6CDs)\CD5\Jaakko Kuusisto (violin), Marko Ylönen (cello), Folke Gräskeck (piano) - Sibelius- Complete Piano Trios volume 2.wav
峰值电平 99.9 %
抓取速度 4.0 X
范围质量 100.0 %
复制 CRC 40A27547
复制成功
没有错误发生
状态报告结尾

Disc 5 - Piano Trios (66:39)

Piano Trio in D major, ‘Korpo’, JS 209 [35:51]
1887 (Manuscript HUL 0532-0534 / Breitkopf & Härtel)
01. Allegro moderato [10:50]
02. II. Fantasia. Andante - Adagio - Molto adagio - Andantino - Moderato - Andantino - [Transition] [15:30]
03. III. Finale. Vivace [9:21]
04. Andantino in G minor, JS 43 [1:40]
1887 (Manuscript HUL 0509/1 / Breitkopf & Härtel)
05. [Allegretto] in A flat major [0:46]
1887-88 (Manuscript HUL 0547)
Piano Trio in C major, ‘Lovisa’, JS 208 [15:47]
1888 (Warner / Chappell Music Finland)

06. I. Allegro [6:57]
07. II. Andante - Più lento - Lento [4:04]
08. III. Allegro con brio [4:37]
09. [Allegro] in D minor [6:09]
1889 (completed by Kalevi Aho) (Manuscript HUL 0548)
10. [Allegretto] in E flat major [1:39]
1891-92 (completed by Jaakko Kuusisto) (Manuscript HUL 0419/21)
11. La pompeuse Marche d’Asis, JS 116 [3:21]
1891 (Manuscript HUL 0550)-Jaakko Kuusisto violin
Marko Ylönen cello
Folke Gräsbeck piano

LOG

Exact Audio Copy V1.0 beta 3 from 29. August 2011
EAC 抓取日志文件从23. 二月 2013, 17:33
Jean Sibelius / Sibelius Edition Vol.2-CD6
使用驱动器 :SONY DVD RW AD-7240S Adapter: 2 ID: 0
读取模式 : 可靠Secure
使用精确流 : 是
清空音频缓存 : 是
使用 C2 指示器 : 否
读取偏移校正: : 48
读取 Lead-In 和 Lead-Out : 否
用静音填充抓取中丢失偏移的采样 : 是
去除首尾静音块 : 否
在CRC 计算中使用了空样本 : 是
已用接口 : Win NT 及 2000 本地 Win32 接口
所用输出模式: : 用户定义的编码器
已选比特率 : 768 kBit/s
质量 : 高
添加 ID3 标签 : 否
命令行压缩器 : d:\Program Files\Exact Audio Copy\FLAC\FLAC.EXE
附加命令行参数: : -6 -V -T "TOTALTRACKS=%numtracks%" %hascover%--picture="%coverfile%"%hascover% %source% -o %dest%
已抓取 CD 的 TOC
音轨 | 起始 | 长度 | 起始扇区 | 结束扇区
--------------------------------------------
1 | 0:00.00 | 11:39.57 | 0 | 52481
2 | 11:39.57 | 7:56.47 | 52482 | 88228
3 | 19:36.29 | 4:34.05 | 88229 | 108783
4 | 24:10.34 | 8:48.32 | 108784 | 148415
5 | 32:58.66 | 3:45.59 | 148416 | 165349
6 | 36:44.50 | 3:54.38 | 165350 | 182937
7 | 40:39.13 | 1:52.39 | 182938 | 191376
8 | 42:31.52 | 1:28.71 | 191377 | 198047
9 | 44:00.48 | 0:27.69 | 198048 | 200141
10 | 44:28.42 | 4:35.18 | 200142 | 220784
11 | 49:03.60 | 4:54.50 | 220785 | 242884
12 | 53:58.35 | 4:25.52 | 242885 | 262811
13 | 58:24.12 | 9:02.05 | 262812 | 303466
14 | 67:26.17 | 8:56.07 | 303467 | 343673
范围状态及错误
已选择范围
文件名 F:\Music\The Sibelius Edition(BIS 13VOLs)\VOL2 Chamber Music II(6CDs)\CD6\Jean Sibelius - Sibelius Edition Vol.2-CD6.wav
峰值电平 98.1 %
抓取速度 4.6 X
范围质量 100.0 %
复制 CRC 2EFC3896
复制成功
没有错误发生
状态报告结尾

[BIS-CD-1906/08] Volume 3 - Voice & Orchestra (6CD) (7:27:36)

Disc 1 (80:46)

Kullervo, Op. 7 [80:34]
for soloists, male-voice choir and orchestra
(text: Kalevala, see page 102)
1892 (Breitkopf & Härtel)
01. I. Introduction. Allegro moderato [12:50]
02. II. Kullervo’s Youth. Grave [19:18]
03. III. Kullervo and his Sister. Allegro vivace [25:27]
04. IV. Kullervo Goes to War. Alla marcia [Allegro molto] - Vivace - Presto [10:04]
05. V. Kullervo’s Death. Andante [12:22]
Lilli Paasikivi mezzo-soprano [3], Raimo Laukka baritone [3]
YL Male Voice Choir, Matti Hyökki chorus master [3, 5]
Lahti Symphony Orchestra (Sinfonia Lahti), Osmo Vänskä conductor

LOG

Exact Audio Copy V1.0 beta 3 from 29. August 2011
EAC 抓取日志文件从23. 二月 2013, 21:01
Jean Sibelius / SIBELIUS Kullervo Op 7
使用驱动器 :SONY DVD RW AD-7240S Adapter: 2 ID: 0
读取模式 : 可靠Secure
使用精确流 : 是
清空音频缓存 : 是
使用 C2 指示器 : 否
读取偏移校正: : 48
读取 Lead-In 和 Lead-Out : 否
用静音填充抓取中丢失偏移的采样 : 是
去除首尾静音块 : 否
在CRC 计算中使用了空样本 : 是
已用接口 : Win NT 及 2000 本地 Win32 接口
所用输出模式: : 用户定义的编码器
已选比特率 : 768 kBit/s
质量 : 高
添加 ID3 标签 : 否
命令行压缩器 : d:\Program Files\Exact Audio Copy\FLAC\FLAC.EXE
附加命令行参数: : -6 -V -T "TOTALTRACKS=%numtracks%" %hascover%--picture="%coverfile%"%hascover% %source% -o %dest%
已抓取 CD 的 TOC
音轨 | 起始 | 长度 | 起始扇区 | 结束扇区
--------------------------------------------
1 | 0:00.00 | 12:57.00 | 0 | 58274
2 | 12:57.00 | 19:23.38 | 58275 | 145537
3 | 32:20.38 | 25:38.37 | 145538 | 260924
4 | 57:59.00 | 10:13.00 | 260925 | 306899
5 | 68:12.00 | 12:32.00 | 306900 | 363299
范围状态及错误
已选择范围
文件名 F:\Music\The Sibelius Edition(BIS 13VOLs)\VOL3 Voice&Orchestra(6CDs)\CD1\Jean Sibelius - SIBELIUS Kullervo Op 7.wav
峰值电平 100.0 %
抓取速度 4.6 X
范围质量 100.0 %
复制 CRC 2B0F61E6
复制成功
没有错误发生
状态报告结尾

Disc 2 (79:05)

[Two Chorales] for mixed choir and orchestra [4:53]
1889 (Manuscript / HUL 1260 & 1263)
01. Herr du bist ein Fels (Lord, you are a rock) (p. 108) [1:41]
02. Herr erzeige uns deine Gnade (Lord, show us your mercy) ( p. 108) [3:05]
Dominante Choir, Seppo Murto chorus master
03. Rakastava (The Lover), JS 160b [6:28]
for tenor, male-voice choir and string orchestra (text: Kanteletar, p. 108)
1894 (Manuscript / Breitkopf & Härtel)
Lento - [Kevyesti] - [Reippaasti] - Tempo I
YL Male Voice Choir, Tom Nyman tenor
Kantaatti tohtorin- ja maisterin-vihkijäisissä 31 päivänä toukokuuta 1894, JS 105 [31:47]
(Cantata for the University Graduation Ceremonies of 1894 [Promotional Cantata])
for soloists, mixed choir and orchestra (text: Kasimir Lönnbohm, p. 110)
1894 (Manuscript / Breitkopf & Härtel)

04. I. Syntyi kun maailmat... (When the planets were born...) 7:23]
Molto maestoso ed adagio [choir and orchestra]
05. II. Kaskeksi korvet ne raadettiin... (We tore down and burned the woods...) [15:17]
Allegro assai [soloists, choir and orchestra]
06. III. Andantino [orchestra] [8:53]
Helena Juntunen soprano, Juha Hostikka baritone
Dominante Choir

07. The Wood-Nymph, Op. 15 [10:10]
Melodrama for recitation, piano and orchestra (text: Viktor Rydberg, p. 114)
1894-95 (Manuscript / Breitkopf & Härtel)
Allegro - Vivace - Moderato - Largamente
Lasse Pöysti narrator, Harri Karri piano
08. Serenad (Serenade), JS 168 [5:47]
for baritone and orchestra (text: Erik Johan Stagnelius, p. 115)
1894-95 (Breitkopf & Härtel)
Tommi Hakala baritone
Kantaatti ilo- ja onnentoivotusjuhlassa Marraskuun 2. päivänä 1896, JS 104 [18:37]
(Cantata for the Coronation of Nicholas II)
for mixed choir and orchestra (text: Paavo Cajander, p. 116)
1896 (Manuscript / Breitkopf & Härtel)

09. I. Terve nuori ruhtinas... (Hail, young prince...) [8:33]
Allegro
10. II. Oikeuden varmassa turvassa... (In the sure security of justice...) [9:58]
Allegro
Jubilate Choir, Astrid Riska chorus master-All tracks, Disc 2:
Lahti Symphony Orchestra (Sinfonia Lahti)
Osmo Vänskä
conductor

LOG

Exact Audio Copy V1.0 beta 3 from 29. August 2011
EAC 抓取日志文件从23. 二月 2013, 21:25
Various Artists / The Sibelius Edition CD02
使用驱动器 :SONY DVD RW AD-7240S Adapter: 2 ID: 0
读取模式 : 可靠Secure
使用精确流 : 是
清空音频缓存 : 是
使用 C2 指示器 : 否
读取偏移校正: : 48
读取 Lead-In 和 Lead-Out : 否
用静音填充抓取中丢失偏移的采样 : 是
去除首尾静音块 : 否
在CRC 计算中使用了空样本 : 是
已用接口 : Win NT 及 2000 本地 Win32 接口
所用输出模式: : 用户定义的编码器
已选比特率 : 768 kBit/s
质量 : 高
添加 ID3 标签 : 否
命令行压缩器 : d:\Program Files\Exact Audio Copy\FLAC\FLAC.EXE
附加命令行参数: : -6 -V -T "TOTALTRACKS=%numtracks%" %hascover%--picture="%coverfile%"%hascover% %source% -o %dest%
已抓取 CD 的 TOC
音轨 | 起始 | 长度 | 起始扇区 | 结束扇区
--------------------------------------------
1 | 0:00.00 | 1:49.22 | 0 | 8196
2 | 1:49.22 | 3:13.12 | 8197 | 22683
3 | 5:02.34 | 6:37.05 | 22684 | 52463
4 | 11:39.39 | 7:28.24 | 52464 | 86087
5 | 19:07.63 | 15:25.69 | 86088 | 155531
6 | 34:33.57 | 9:06.24 | 155532 | 196505
7 | 43:40.06 | 10:19.48 | 196506 | 242978
8 | 53:59.54 | 5:56.67 | 242979 | 269745
9 | 59:56.46 | 8:38.55 | 269746 | 308650
10 | 68:35.26 | 10:29.49 | 308651 | 355874
范围状态及错误
已选择范围
文件名 F:\Music\The Sibelius Edition(BIS 13VOLs)\VOL3 Voice&Orchestra(6CDs)\CD2\Various Artists - The Sibelius Edition CD02.wav
峰值电平 99.9 %
抓取速度 4.6 X
范围质量 100.0 %
复制 CRC EAED7D62
复制成功
没有错误发生
状态报告结尾

Disc 3 (76:29)

Jungfrun i tornet (The Maiden in the Tower), JS 101 [35:15]
Opera in one act (libretto: Rafael Hertzberg, p. 119)
1896 (Manuscript / Breitkopf & Härtel)
01. Overture [2:50]
Allegro molto
02. Scene 1. Bailiff: Fagraste mö... (Fairest maiden...) Allegro molto [5:49]
03. Scene 2. Maiden: Santa Maria... Molto sostenuto [3:48]
04. Scene 3. Maiden: Ah, hör jag rätt... (Ah, do I hear right...) Allegro [4:05]
05. [Intermezzo] Largamente [1:01]
06. Scene 4. Lover: Ack, när jag ser hennes drag... (Ah, when I see her face...) Allegro moderato [4:01]
07. Scene 5. Maiden: Brännande kval... (Burning torment...) Largamente [8:10]
08. Scene 6. Bailiff: Vem är du... (Who are you...) Allegro molto [1:04]
09. Scene 7. Chatelaine: Vad är det jag ser? (What’s this I see?) Meno mosso (attacca) [1:27]
10. Scene 8. Maiden: Så är jag fri... (Now I am free...) [Meno mosso] [2:57]
MariAnne Häggander soprano (Maiden)
Tone Kruse alto (Chatelaine)
Erland Hagegård tenor (Lover)
Jorma Hynninen baritone (Bailiff)
Gothenburg Concert Hall Choir, Gunno Palmquist chorus master

11. Laulu Lemminkäiselle (A Song for Lemminkäinen), Op. 31 No. 1 [4:08]
for male-voice choir and orchestra (text: Yrjö Weijola, p. 127)
1896 (Warner / Chappell Music Finland)
Allegro molto
YL Male Voice Choir
12. Koskenlaskijan morsiamet (The Rapids-Rider’s Brides), Op. 33 [9:00]
for baritone and orchestra (text: A. Oksanen, p. 127)
1897 (Breitkopf & Härtel)
Allegro (ma non troppo)
Jorma Hynninen baritone
13. Sången om korsspindeln (Fool’s Song of the Spider), Op. 27 No. 4 [3:31]
from the incidental music to Adolf Paul’s play King Christian II ( p. 129)
for baritone and orchestra
1898 (Breitkopf & Härtel)
Moderato
Jorma Hynninen baritone
14. Sandels, Op. 28 [8:57]
for male-voice choir and orchestra (text: Johan Ludvig Runeberg, p. 130)
1898 - original version (Muntra Musikanter)
Allegro assai
YL Male Voice Choir
15. Athenarnes sång (Song of the Athenians), Op. 31 No. 3 [3:31]
for unison boys’ and mens’ voices, woodwind, brass, percussion and double bass (text: Viktor Rydberg, p. 134)
Original version - 1899 (Breitkopf & Härtel)
[Alla marcia, ma moderato]
YL Male Voice Choir
Lahti Boys’ Choir
, Yrjö Leppänen chorus master

16. Islossningen i Uleå älv (The Breaking of the Ice on the Oulu River), Op. 30 [10:30]
Improvisation for recitation, male-voice choir and orchestra (text: Zachris Topelius, p. 135)
1899 (Manuscript / Breitkopf & Härtel)
Allegro - Un poco lento - Allegro - Allegro molto, quasi presto - Adagio - Allegro molto
Lasse Pöysti narrator, YL Male Voice Choir-Tracks 1-10, 12 & 13:
Gothenburg Symphony Orchestra
Neeme Järvi
conductor [Tracks 1–10], Jorma Panula conductor [Tracks 12 & 13]

Tracks 11, 14-16:
Lahti Symphony Orchestra (Sinfonia Lahti)
Osmo Vänskä
conductor

LOG

Exact Audio Copy V1.0 beta 3 from 29. August 2011
EAC 抓取日志文件从23. 二月 2013, 21:46
Various Artists / The Sibelius Edition CD03
使用驱动器 :SONY DVD RW AD-7240S Adapter: 2 ID: 0
读取模式 : 可靠Secure
使用精确流 : 是
清空音频缓存 : 是
使用 C2 指示器 : 否
读取偏移校正: : 48
读取 Lead-In 和 Lead-Out : 否
用静音填充抓取中丢失偏移的采样 : 是
去除首尾静音块 : 否
在CRC 计算中使用了空样本 : 是
已用接口 : Win NT 及 2000 本地 Win32 接口
所用输出模式: : 用户定义的编码器
已选比特率 : 768 kBit/s
质量 : 高
添加 ID3 标签 : 否
命令行压缩器 : d:\Program Files\Exact Audio Copy\FLAC\FLAC.EXE
附加命令行参数: : -6 -V -T "TOTALTRACKS=%numtracks%" %hascover%--picture="%coverfile%"%hascover% %source% -o %dest%
已抓取 CD 的 TOC
音轨 | 起始 | 长度 | 起始扇区 | 结束扇区
--------------------------------------------
1 | 0:00.00 | 2:54.06 | 0 | 13055
2 | 2:54.06 | 5:48.08 | 13056 | 39163
3 | 8:42.14 | 3:49.47 | 39164 | 56385
4 | 12:31.61 | 4:03.63 | 56386 | 74673
5 | 16:35.49 | 1:00.61 | 74674 | 79234
6 | 17:36.35 | 4:02.14 | 79235 | 97398
7 | 21:38.49 | 8:08.50 | 97399 | 134048
8 | 29:47.24 | 1:03.37 | 134049 | 138810
9 | 30:50.61 | 1:26.53 | 138811 | 145313
10 | 32:17.39 | 3:14.20 | 145314 | 159883
11 | 35:31.59 | 4:15.16 | 159884 | 179024
12 | 39:47.00 | 9:13.43 | 179025 | 220542
13 | 49:00.43 | 3:39.07 | 220543 | 236974
14 | 52:39.50 | 9:07.42 | 236975 | 278041
15 | 61:47.17 | 3:40.26 | 278042 | 294567
16 | 65:27.43 | 11:01.32 | 294568 | 344174
范围状态及错误
已选择范围
文件名 F:\Music\The Sibelius Edition(BIS 13VOLs)\VOL3 Voice&Orchestra(6CDs)\CD3\Various Artists - The Sibelius Edition CD03.wav
峰值电平 100.0 %
抓取速度 4.6 X
范围质量 100.0 %
复制 CRC F4071AB5
复制成功
没有错误发生
状态报告结尾

Disc 4 (76:11)

01. Athenarnes sång (Song of the Athenians), Op. 31 No. 3 [3:26]
arranged by the composer for unison boys’ and mens’ voices, brass septet and percussion (text: Viktor Rydberg, p. 134)
1899 (Breitkopf & Härtel)
Alla marcia, ma moderato
YL Male Voice Choir, Lahti Boys’ Choir
02. Snöfrid, Op. 29 [14:15]
Improvisation for recitation, mixed chorus and orchestra (text: Viktor Rydberg, p. 138)
1900 (Wilhelm Hansen)
Allegro molto - Andantino - Melodrama. Pesante - Andante (ma non troppo lento)
Stina Ekblad narrator, Jubilate Choir
03. Impromptu, Op. 19 [5:27]
for women’s chorus and orchestra (text: Viktor Rydberg, p. 139)
1902 - original version (Manuscript / Breitkopf & Härtel)
In tempo d’un[e] valse lente
Dominante Choir
04. Tulen synty (The Origin of Fire), Op. 32 [11:20]
for baritone, male-voice choir and orchestra (text: Kalevala, p. 141)
1902 – original version (Manuscript / Breitkopf & Härtel)
Poco adagio (ma non troppo lento) - Moderato - Adagio - Allegro moderato - Largamente
Tommi Hakala baritone, YL Male Voice Choir
05. Se’n har jag ej frågat mera (Since then I have questioned no further), Op. 17 No. 1 [1:53]
for voice and orchestra (text: Johan Ludvig Runeberg, p. 143)
1891-92, orch. 1903 (Breitkopf & Härtel)
Grave
MariAnne Häggander soprano
06. Höstkväll (Autumn Evening), Op. 38 No. 1 [4:29]
for voice and full orchestra (text: Viktor Rydberg, p. 143)
1903, orch. 1904 (Breitkopf & Härtel)
Andante patetico
MariAnne Häggander soprano
07. På verandan vid havet (On a Balcony by the Sea), Op. 38 No. 2 [3:06]
for voice and orchestra (text: Viktor Rydberg, p. 144)
1903, orch. 1903 (Breitkopf & Härtel)
Grave
Jorma Hynninen baritone
08. I natten (In the Night), Op. 38 No. 3 [3:37]
for voice and orchestra (text: Viktor Rydberg, p. 145)
1903, orch. 1903 (Breitkopf & Härtel)
Andante
Tommi Hakala baritone
09. Har du mod? (Have You Courage?), Op. 31 No. 2 [1:38]
for male-voice choir and orchestra (text: Josef Julius Wecksell, p. 145)
1904 - first version (Breitkopf & Härtel / Fennica Gehrman Oy)
Marciale
YL Male Voice Choir
10. Höstkväll (Autumn Evening), Op. 38 No. 1 [4:55]
for voice and string orchestra (text: Viktor Rydberg, p. 143)
1903, orch. 1904 (Breitkopf & Härtel)
Andante patetico
Helena Juntunen soprano
11. Vapautettu kuningatar (The Captive Queen), Op. 48 [9:16]
Ballade for mixed chorus and orchestra (text: Paavo Cajander, p. 146)
1906 (Lienau)
Allegro molto moderato
Dominante Choir
12. Grevinnans konterfej (The Countess’s Portrait), JS 88 [3:31]
for recitation and orchestra (text: Zachris Topelius, p. 147)
1906 (Warner / Chappell Music Finland)
Andante
Tytti Vänskä narrator
13. Impromptu, Op. 19 [6:57]
for women’s chorus and orchestra (text: Viktor Rydberg, p. 139)
1902, rev. 1910 - final version (Breitkopf & Härtel)
[Andante]
Dominante Choir-Tracks 1–4, 8–13:
Lahti Symphony Orchestra (Sinfonia Lahti), Osmo Vänskä conductor
Tracks 5–7:
Gothenburg Symphony Orchestra, Jorma Panula conductor

LOG

Exact Audio Copy V1.0 beta 3 from 29. August 2011
EAC 抓取日志文件从23. 二月 2013, 22:08
Various Artists / The Sibelius Edition CD04
使用驱动器 :SONY DVD RW AD-7240S Adapter: 2 ID: 0
读取模式 : 可靠Secure
使用精确流 : 是
清空音频缓存 : 是
使用 C2 指示器 : 否
读取偏移校正: : 48
读取 Lead-In 和 Lead-Out : 否
用静音填充抓取中丢失偏移的采样 : 是
去除首尾静音块 : 否
在CRC 计算中使用了空样本 : 是
已用接口 : Win NT 及 2000 本地 Win32 接口
所用输出模式: : 用户定义的编码器
已选比特率 : 768 kBit/s
质量 : 高
添加 ID3 标签 : 否
命令行压缩器 : d:\Program Files\Exact Audio Copy\FLAC\FLAC.EXE
附加命令行参数: : -6 -V -T "TOTALTRACKS=%numtracks%" %hascover%--picture="%coverfile%"%hascover% %source% -o %dest%
已抓取 CD 的 TOC
音轨 | 起始 | 长度 | 起始扇区 | 结束扇区
--------------------------------------------
1 | 0:00.00 | 3:34.56 | 0 | 16105
2 | 3:34.56 | 14:26.44 | 16106 | 81099
3 | 18:01.25 | 5:35.09 | 81100 | 106233
4 | 23:36.34 | 11:31.72 | 106234 | 158130
5 | 35:08.31 | 2:00.25 | 158131 | 167155
6 | 37:08.56 | 4:36.35 | 167156 | 187890
7 | 41:45.16 | 3:13.36 | 187891 | 202401
8 | 44:58.52 | 3:45.44 | 202402 | 219320
9 | 48:44.21 | 1:46.22 | 219321 | 227292
10 | 50:30.43 | 5:03.74 | 227293 | 250091
11 | 55:34.42 | 9:28.05 | 250092 | 292696
12 | 65:02.47 | 3:39.08 | 292697 | 309129
13 | 68:41.55 | 7:29.20 | 309130 | 342824
范围状态及错误
已选择范围
文件名 F:\Music\The Sibelius Edition(BIS 13VOLs)\VOL3 Voice&Orchestra(6CDs)\CD4\Various Artists - The Sibelius Edition CD04.wav
峰值电平 99.0 %
抓取速度 4.6 X
范围质量 99.9 %
复制 CRC 70E5B9C2
复制成功
没有错误发生
状态报告结尾

Disc 5 (78:29)

01. Vapautettu kuningatar (The Captive Queen), Op. 48 [9:21]
arranged by the composer for male-voice choir and orchestra
(text: Paavo Cajander, p. 146)
1906, rev. 1910 (?) (Lienau)
Allegro molto moderato
YL Male Voice Choir

02. Tulen synty (The Origin of Fire), Op. 32 [9:03]
for baritone, male-voice choir and orchestra (text: Kalevala, p. 141)
1902, rev. 1910 - final version (Breitkopf & Härtel)
Lento assai - Meno lento - Allegro moderato - Largamente
Tommi Hakala baritone
YL Male Voice Choir

03. Har du mod? (Have You Courage?), Op. 31 No. 2 [2:48]
for male-voice choir and orchestra (text: Josef Julius Wecksell, p. 145)
1904, rev. 1911 - second version (Breitkopf & Härtel / Fennica Gehrman Oy)
Allegro moderato
YL Male Voice Choir

04. Arioso, Op. 3 [3:48]
for voice and string orchestra
(text: Johan Ludvig Runeberg, p. 148)
1911 (Breitkopf & Härtel)
Andantino
MariAnne Häggander soprano

05. Har du mod? (Have You Courage?), Op. 31 No. 2 [1:54]
for male-voice choir and orchestra (text: Josef Julius Wecksell, p. 145)
1904, rev. 1911 & 1912 - third version WORLD PREMIÈRE RECORDING(Breitkopf & Härtel / Fennica Gehrman Oy)
Alla marcia
YL Male Voice Choir

06. Hertig Magnus (Duke Magnus), Op. 57 No. 6 [3:35]
for voice and orchestra (text: Ernst Josephson, p. 148)
1909, orch. 1912 (Breitkopf & Härtel)
Andantino quasi allegretto
Helena Juntunen soprano

07. Luonnotar, Op. 70 [9:00]
for soprano and orchestra (text: Kalevala, p. 149)
1913 (Breitkopf & Härtel)
Tempo moderato - Tranquillo assai
MariAnne Häggander soprano

08. Soluppgång (Sunrise), Op. 37 No. 3 [2:22]
for voice and orchestra (text: Tor Hedberg, p. 150)
1902, orch. 1913 (Breitkopf & Härtel)
Moderato
MariAnne Häggander soprano

09. Våren flyktar hastigt (Spring is Flying), Op. 13 No. 4 [1:30]
for voice and orchestra (text: Johan Ludvig Runeberg, p. 151)
1891, orch. 1913 (Breitkopf & Härtel)
Vivace - Più lento
MariAnne Häggander soprano

10. Har du mod? (Have You Courage?), Op. 31 No. 2 [1:58]
for male-voice choir and orchestra (text: Josef Julius Wecksell, p. 145)
1904, rev. 1911 & 1912-14 - fourth version (Breitkopf & Härtel / Fennica Gehrman Oy)
Alla marcia
YL Male Voice Choir

11. Sandels, Op. 28 [8:57]
for male-voice choir and orchestra (text: Johan Ludvig Runeberg, p. 130)
1898, rev. 1915 - final version (Muntra Musikanter)
Allegro assai
YL Male Voice Choir

12. Demanten på marssnön (The Diamond on the March Snow), Op. 36 No. 6 [2:58]
for voice and orchestra (text: Josef Julius Wecksell, p. 151)
1900, orch. 1917 (Breitkopf & Härtel)
Comodo
Jorma Hynninen baritone

13. Jääkärien marssi (March of the Finnish Jäger Battalion), Op. 91a [2:23]
for male-voice choir and orchestra (text: Heikki Nurmio, p. 152)
1917, orch. 1918 (Breitkopf & Härtel)
Rasch
YL Male Voice Choir

14. Partiolaisten marssi (Scout March), Op. 91b [2:50]
for mixed chorus and orchestra (text: Jalmari Finne, p. 152)
1918 (Wilhelm Hansen)
Poco moderato
Dominante Choir

15. Oma maa (My Own Land), Op. 92 [13:26]
for mixed chorus and orchestra (text: Kallio, p. 153)
1918 (Warner/Chappell Music Finland)
Allegro molto moderato - Allegro moderato - Vivace (ma non troppo) - Molto tranquillo - Tranquillo assai -
Moderato assai (e poco a poco più largamente) - Largamente assai
Jubilate Choir
-Tracks 1–3, 5, 6, 10, 11, 13–15:
Lahti Symphony Orchestra (Sinfonia Lahti), Osmo Vänskä conductor
Tracks 4, 7, 8, 9 & 12:
Gothenburg Symphony Orchestra, Jorma Panula conductor

LOG

Exact Audio Copy V1.0 beta 3 from 29. August 2011
EAC 抓取日志文件从23. 二月 2013, 22:36
The Sibelius Edition - Voice & Orchestra / The Sibelius Edition: Vol. 3: Voice & Orchestra
使用驱动器 :SONY DVD RW AD-7240S Adapter: 2 ID: 0
读取模式 : 可靠Secure
使用精确流 : 是
清空音频缓存 : 是
使用 C2 指示器 : 否
读取偏移校正: : 48
读取 Lead-In 和 Lead-Out : 否
用静音填充抓取中丢失偏移的采样 : 是
去除首尾静音块 : 否
在CRC 计算中使用了空样本 : 是
已用接口 : Win NT 及 2000 本地 Win32 接口
所用输出模式: : 用户定义的编码器
已选比特率 : 768 kBit/s
质量 : 高
添加 ID3 标签 : 否
命令行压缩器 : d:\Program Files\Exact Audio Copy\FLAC\FLAC.EXE
附加命令行参数: : -6 -V -T "TOTALTRACKS=%numtracks%" %hascover%--picture="%coverfile%"%hascover% %source% -o %dest%
已抓取 CD 的 TOC
音轨 | 起始 | 长度 | 起始扇区 | 结束扇区
--------------------------------------------
1 | 0:00.00 | 9:32.45 | 0 | 42944
2 | 9:32.45 | 9:13.36 | 42945 | 84455
3 | 18:46.06 | 2:54.40 | 84456 | 97545
4 | 21:40.46 | 3:56.43 | 97546 | 115288
5 | 25:37.14 | 2:02.14 | 115289 | 124452
6 | 27:39.28 | 3:41.61 | 124453 | 141088
7 | 31:21.14 | 9:11.67 | 141089 | 182480
8 | 40:33.06 | 2:28.43 | 182481 | 193623
9 | 43:01.49 | 1:38.28 | 193624 | 201001
10 | 44:40.02 | 2:04.15 | 201002 | 210316
11 | 46:44.17 | 9:13.07 | 210317 | 251798
12 | 55:57.24 | 3:06.09 | 251799 | 265757
13 | 59:03.33 | 2:29.36 | 265758 | 276968
14 | 61:32.69 | 2:57.55 | 276969 | 290298
15 | 64:30.49 | 13:58.26 | 290299 | 353174
范围状态及错误
已选择范围
文件名 F:\Music\The Sibelius Edition(BIS 13VOLs)\VOL3 Voice&Orchestra(6CDs)\CD5\The Sibelius Edition - Voice & Orchestra - The Sibelius Edition- Vol. 3- Voice & Orchestra.wav
峰值电平 99.8 %
抓取速度 4.6 X
范围质量 100.0 %
复制 CRC 33366E72
复制成功
没有错误发生
状态报告结尾

Disc 6 (56:38)

01. Jordens sång (Song of the Earth), Op. 93 [14:20]
for mixed chorus and orchestra (text: Jarl Hemmer, p. 154)
1919 (Warner/Chappell Music Finland)
Andante - Andante assai - Andante con moto - Andantino - Poco con moto - Agitato - Largamente
Dominante Choir

02. Autrefois, Scène pastorale, Op. 96b [5:40]
for two voices and orchestra (text: Hjalmar Procopé, p. 157)
1919, rev. 1920 (Wilhelm Hansen)
Allegretto
Kristiina Mäkela soprano, Matleena Vakkilainen alto

03. Maan virsi (Hymn to the Earth), Op. 95 [5:47]
for mixed chorus and orchestra (text: Eino Leino, p. 158)
1920 (Warner / Chappell Music Finland)
Tranquillo - Molto tranquillo - Meno tranquillo (ma poco a poco meno) - Tranquillo
Dominante Choir

04. Väinön virsi (Väinämöinen’s Song), Op. 110 [8:53]
for mixed chorus and orchestra (text: Kalevala, p. 159)
1926 (Breitkopf & Härtel)
Andante mosso - Largamente e maestoso - Largamente assai
Dominante Choir

05. Processional (‘Onward, Ye Peoples’), Op. 113 No. 6 [3:46]
for mixed chorus and orchestra (text: Viktor Rydberg/Marshall Kernochan, p. 160)
1926, arr. 1938 (Galaxy Music Corp.)
Largamente e maestoso
Dominante Choir

06. Koskenlaskijan morsiamet (The Rapids-Rider’s Brides), Op. 33 [8:36]
arranged by the composer for male-voice choir and orchestra (text: A. Oksanen, p. 127)
1897, arr. 1943 (Breitkopf & Härtel)
Allegro (ma non troppo)
YL Male Voice Choir

07. Ett ensamt skidspår (A Lonely Ski-Trail), JS 77b [2:41]
arranged by the composer for recitation, strings and harp (text: Bertel Gripenberg, p. 161)
1925, arr. 1948 (Gehrmans)
Allegretto
Lasse Pöysti narrator

08. Kullervon valitus (Kullervo’s Lament) from Op. 7 [2:17]
for voice and orchestra (text: Kalevala, p. 161)
1892, orch. 1957 (Breitkopf & Härtel)
Largo
Jyrki Korhonen bass

09. Kom nu hit, död (Come Away, Death), Op. 60 No. 1 [2:48]
from the incidental music to William Shakespeare’s play Twelfth Night (p. 163) for voice, strings and harp
1909, orch. 1957 (Breitkopf & Härtel)
Lento
Jorma Hynninen baritone
-Tracks 1–8:
Lahti Symphony Orchestra (Sinfonia Lahti), Osmo Vänskä conductor
Track 9:
Gothenburg Symphony Orchestra, Jorma Panula conductor

LOG

Exact Audio Copy V1.0 beta 3 from 29. August 2011
EAC 抓取日志文件从23. 二月 2013, 22:56
Various Artists / The Sibelius Edition CD06
使用驱动器 :SONY DVD RW AD-7240S Adapter: 2 ID: 0
读取模式 : 可靠Secure
使用精确流 : 是
清空音频缓存 : 是
使用 C2 指示器 : 否
读取偏移校正: : 48
读取 Lead-In 和 Lead-Out : 否
用静音填充抓取中丢失偏移的采样 : 是
去除首尾静音块 : 否
在CRC 计算中使用了空样本 : 是
已用接口 : Win NT 及 2000 本地 Win32 接口
所用输出模式: : 用户定义的编码器
已选比特率 : 768 kBit/s
质量 : 高
添加 ID3 标签 : 否
命令行压缩器 : d:\Program Files\Exact Audio Copy\FLAC\FLAC.EXE
附加命令行参数: : -6 -V -T "TOTALTRACKS=%numtracks%" %hascover%--picture="%coverfile%"%hascover% %source% -o %dest%
已抓取 CD 的 TOC
音轨 | 起始 | 长度 | 起始扇区 | 结束扇区
--------------------------------------------
1 | 0:00.00 | 14:34.69 | 0 | 65618
2 | 14:34.69 | 5:48.47 | 65619 | 91765
3 | 20:23.41 | 5:53.73 | 91766 | 118313
4 | 26:17.39 | 9:04.02 | 118314 | 159115
5 | 35:21.41 | 3:52.54 | 159116 | 176569
6 | 39:14.20 | 8:46.23 | 176570 | 216042
7 | 48:00.43 | 2:49.71 | 216043 | 228788
8 | 50:50.39 | 2:24.21 | 228789 | 239609
9 | 53:14.60 | 3:21.15 | 239610 | 254699
范围状态及错误
已选择范围
文件名 F:\Music\The Sibelius Edition(BIS 13VOLs)\VOL3 Voice&Orchestra(6CDs)\CD6\Various Artists - The Sibelius Edition CD06.wav
峰值电平 100.0 %
抓取速度 3.9 X
范围质量 99.9 %
复制 CRC C1F6BE6F
复制成功
没有错误发生
状态报告结尾
[teatrix.ru].t19349.torrent 
Торрент: Зарегистрирован [ 2016-03-18 12:49 ] · 12A4952058860B03EE1689EB2E4B2421F7017F66

Скачать .torrent

Скачать

75 KB

Статус: проверено
Скачан: 1 раз
Размер: 19.56 GB
terms.php



Быстрый ответ

Имя:

      
Для отправки сообщений необходимо включить JavaScript
Показать сообщения:    

Текущее время: 04-Дек 02:49

Часовой пояс: UTC + 3


Вы можете начинать темы
Вы можете отвечать на сообщения
Вы не можете редактировать свои сообщения
Вы не можете удалять свои сообщения
Вы не можете голосовать в опросах
Вы не можете прикреплять файлы к сообщениям
Вы можете скачивать файлы