Стукач Жана-Пьера Мельвиля / Le Doulos de Jean-Pierre Melville (Серж Номи / Serge Nomis) [1963, документальный, кинематограф, IPTVRip] Original (Fre) + Sub (Rus)


Статистика раздачи [Обновить пиров]
Размер:  77 MB   |    Зарегистрирован:  8 месяцев 23 дня   |    Скачан:  0 раз

Полного источника не было: Никогда

Личеров:  78  [  0 KB/s  ]   Подробная статистика пиров
 
   
 
 
 

[Цитировать]

"Стукач" Жана-Пьера Мельвиля
Le Doulos de Jean-Pierre Melville- Дата/Год выпуска: 1963
Страна: Франция
Жанр: документальный, кинематограф
Продолжительность: 00:09:42
Перевод: Субтитры
Русские субтитры: естьФормат субтитров: hardsub (неотключаемые)
Доп. информация о субтитрах: инициатор Aleks Punk
Оригинальная аудиодорожка: французский
Режиссер: Серж Номи / Serge Nomis
Телеканал: Ina
Описание: Журналист Марио Бэно / Mario Beunat в специальном выпуске тележурнала "Le Cinema" на канале RTF берет интервью у актера Жана-Поля Бельмондо / Jean Paul Belmondo и режиссера Жана-Пьера Мельвиля / Jean Pierre Melville. Они расскажут о съемках фильма "Стукач / Le Doulos".
Передача вышла в эфир 1 февраля 1963 года.
Доп. информация: За предоставленный материал благодарность Aleks Punk

качество: IPTVRip
формат: AVI
Видео: XviD, 640x480 (4:3), 25 fps, ~972 kbps avg, 0.127 bit/pixel
Аудио: MP3, 2 ch, 48 kHz, ~128.00 kbps avg

MediaInfo

Общее
Полное имя : E:\My Torrents 2\[apreder]Le_Doulos_de_Jean-Pierre_Melville(1963)IPTVRip.avi
Формат : AVI
Формат/Информация : Audio Video Interleave
Размер файла : 77,1 Мбайт
Продолжительность : 9 м. 42 с.
Общий поток : 1110 Кбит/сек
Видео
Идентификатор : 0
Формат : MPEG-4 Visual
Профиль формата : Advanced Simple@L5
Параметр BVOP формата : 2
Параметр QPel формата : Нет
Параметр GMC формата : Без точки перехода
Параметр матрицы формата : Default (H.263)
Идентификатор кодека : XVID
Идентификатор кодека/Подсказка : XviD
Продолжительность : 9 м. 42 с.
Битрейт : 972 Кбит/сек
Ширина : 640 пикселей
Высота : 480 пикселей
Соотношение сторон : 4:3
Частота кадров : 25,000 кадров/сек
Цветовое пространство : YUV
Субдискретизация насыщенности : 4:2:0
Битовая глубина : 8 бит
Тип развёртки : Прогрессивная
Метод сжатия : С потерями
Бит/(Пиксели*Кадры) : 0.127
Размер потока : 67,5 Мбайт (88%)
Библиотека кодирования : XviD 64
Аудио
Идентификатор : 1
Формат : MPEG Audio
Версия формата : Version 1
Профиль формата : Layer 3
Идентификатор кодека : 55
Идентификатор кодека/Подсказка : MP3
Продолжительность : 9 м. 42 с.
Вид битрейта : Постоянный
Битрейт : 128 Кбит/сек
Каналы : 2 канала
Частота : 48,0 КГц
Метод сжатия : С потерями
Размер потока : 8,89 Мбайт (12%)
Выравнивание : Соединение по промежуткам
Продолжительность промежутка : 40 мс. (1,00 видеокадр)
Время предзагрузки промежутка : 504 мс.
Библиотека кодирования : LAME3.99r
Настройки программы : -m s -V 4 -q 2 -lowpass 17 -b 128

Скриншоты

Резервные скриншоты

-[1'858]
[teatrix.ru].t19350.torrent 
Торрент: Зарегистрирован [ 2016-03-18 12:49 ] · 50AC589847EFA66FBE5509C9B5FF833D9473DAB7

Скачать .torrent

Скачать

13 KB

Статус: проверено
Скачан: 0 раз
Размер: 77 MB
terms.php



Показать сообщения:    

Текущее время: 11-Дек 01:21

Часовой пояс: UTC + 3


Вы не можете начинать темы
Вы не можете отвечать на сообщения
Вы не можете редактировать свои сообщения
Вы не можете удалять свои сообщения
Вы не можете голосовать в опросах
Вы не можете прикреплять файлы к сообщениям
Вы можете скачивать файлы