Анатолий Лебедь. Досье русского Рэмбо (Валерий Довбня) [2014, Документальный, биография, военное дело, SATRip]


Статистика раздачи [Обновить пиров]
Размер:  539 MB   |    Зарегистрирован:  8 месяцев 20 дней   |    Скачан:  0 раз

Полного источника не было: Никогда

Личеров:  79  [  0 KB/s  ]   Подробная статистика пиров
 
   
 
 
 

[Цитировать]

Анатолий Лебедь. Досье русского Рэмбо
Дата/Год выпуска: 2014
Страна: Россия
Жанр: Документальный, биография, военный
Продолжительность: 0:44:17
Перевод: Не требуется
Режиссер: Валерий Довбня
Описание: Два года назад при трагических обстоятельствах погиб Герой России гвардии подполковник Анатолий Лебедь. Последние 13 лет своей жизни Анатолий отдал спецназу ВДВ. О его жизни известно мало. Во-первых, потому что то, чем он занимался, зачастую не выносят на первые полосы газет, а во-вторых, сам Лебедь был очень немногословен и не любил рассказывать о своем прошлом. Благодаря прессе за ним прочно закрепилась кличка Человек-война, но только самые близкие люди знали, что на самом деле Анатолий был настоящим Человеком-миром.
качество: SATRip
формат: AVI
Видео: XviD, 1500 Кбит/с, 720x384
Аудио: AC3, 192 Кбит/с, 2 ch

MediaInfo

Полное имя                               : D:\Downloads\Anatoliy.Lebed-Dosye.Russkogo.Rembo.avi
Формат : AVI
Формат/Информация : Audio Video Interleave
Размер файла : 539 Мбайт
Продолжительность : 44 м.
Общий поток : 1702 Кбит/сек
Программа кодирования : VirtualDubMod 1.5.10.3 | www.virtualdub-fr.org || (build 2550/release)
Библиотека кодирования : VirtualDubMod build 2550/release
Видео
Идентификатор : 0
Формат : MPEG-4 Visual
Профиль формата : Advanced Simple@L5
Параметр BVOP формата : 2
Параметр QPel формата : Нет
Параметр GMC формата : Без точки перехода
Параметр матрицы формата : Default (H.263)
Идентификатор кодека : XVID
Идентификатор кодека/Подсказка : XviD
Продолжительность : 44 м.
Битрейт : 1500 Кбит/сек
Ширина : 720 пикселей
Высота : 384 пикселя
Соотношение сторон : 1,85:1
Частота кадров : 25,000 кадров/сек
Цветовое пространство : YUV
Субдискретизация насыщенности : 4:2:0
Битовая глубина : 8 бит
Тип развёртки : Прогрессивная
Метод сжатия : С потерями
Бит/(Пиксели*Кадры) : 0.217
Размер потока : 475 Мбайт (88%)
Библиотека кодирования : XviD 1.2.1 (UTC 2008-12-04)
Аудио
Идентификатор : 1
Формат : AC-3
Формат/Информация : Audio Coding 3
Расширение режима : CM (complete main)
Параметр Endianness формата : Big
Идентификатор кодека : 2000
Продолжительность : 44 м.
Вид битрейта : Постоянный
Битрейт : 192 Кбит/сек
Каналы : 2 канала
Расположение каналов : Front: L R
Частота : 48,0 КГц
Битовая глубина : 16 бит
Метод сжатия : С потерями
Размер потока : 60,8 Мбайт (11%)
Выравнивание : Разделение по промежуткам
Продолжительность промежутка : 40 мс. (1,00 видеокадр)
Время предзагрузки промежутка : 500 мс.

Скриншоты



[teatrix.ru].t19354.torrent 
Торрент: Зарегистрирован [ 2016-03-18 12:49 ] · EAD93ECFAEAAA7CA1F8AF54EB0AFBCB13BC9EC5C

Скачать .torrent

Скачать

11 KB

Статус: проверено
Скачан: 0 раз
Размер: 539 MB
terms.php



Быстрый ответ

Имя:

      
Для отправки сообщений необходимо включить JavaScript
Показать сообщения:    

Текущее время: 08-Дек 03:14

Часовой пояс: UTC + 3


Вы можете начинать темы
Вы можете отвечать на сообщения
Вы не можете редактировать свои сообщения
Вы не можете удалять свои сообщения
Вы не можете голосовать в опросах
Вы не можете прикреплять файлы к сообщениям
Вы можете скачивать файлы