Хроники невезения / Chroniques de la poisse (Осман Серфон / Osman Cerfon) [2010, Франция, авторская анимация, чёрный юмор, WEBRip-AVC]


 

[Цитировать]

Хроники невезения / Chroniques de la poisse
Страна: Франция
Жанр: авторская анимация, чёрный юмор
Год выпуска: 2010
Продолжительность: 00:06:17
Перевод: не требуется
Cубтитры: нет
Режиссёр: Осман Серфон / Osman Cerfon
Описание: Рыбоголовый парень отправился в путешествие, а ему всю дорогу не везёт. Но это ещё мелочь. Когда этот парень расстроен, он способен ненароком сглазить каждого, кто окажется рядом. Этим людям уже не везёт по-крупному.
Доп. информация: Debut Prize - Hiroshima Animation Festival (Japan)
New Talent Award - Festival "Fantoche" (Switzerland)
Canal+ creative aid - Festival "Annecy" (France)
Best Animated Short Film - 20 min max Short Film Festival (Germany)
Special Award - Festival "Animator" (Poland)
Best Animation Award - Couch Festival (Island / USA)
Best Animation Film - First Short Film Festival (France)
Audience Award - Festival "Anilogue" (Austria / Hungary)
Audience Award + Best Début Film Award - Festival "Primanima" (Hungary)
Качество видео: WEBRip-AVC
Формат видео: MP4
Видео: 2442 kbps, 1280х720 (16:9), 25.000 fps, AVC (High@L3.1)
Аудио: 156 kbps, 44.1 kHz, 2 channels, AAC (LC)

MediaInfo

General
Complete name : Chroniques de la poisse (2010).mp4
Format : MPEG-4
Format profile : Base Media
Codec ID : isom
File size : 117 MiB
Duration : 6mn 17s
Overall bit rate mode : Variable
Overall bit rate : 2 601 Kbps
Encoded date : UTC 2011-10-14 19:00:24
Tagged date : UTC 2011-10-15 19:00:27
Video
ID : 1
Format : AVC
Format/Info : Advanced Video Codec
Format profile : High@L3.1
Format settings, CABAC : Yes
Format settings, ReFrames : 4 frames
Codec ID : avc1
Codec ID/Info : Advanced Video Coding
Duration : 6mn 17s
Bit rate : 2 442 Kbps
Maximum bit rate : 9 857 Kbps
Width : 1 280 pixels
Height : 720 pixels
Display aspect ratio : 16:9
Frame rate mode : Constant
Frame rate : 25.000 fps
Color space : YUV
Chroma subsampling : 4:2:0
Bit depth : 8 bits
Scan type : Progressive
Bits/(Pixel*Frame) : 0.106
Stream size : 110 MiB (94%)
Writing library : Vimeo Encoder
Encoded date : UTC 2011-10-14 19:00:24
Tagged date : UTC 2011-10-14 19:00:26
Audio
ID : 2
Format : AAC
Format/Info : Advanced Audio Codec
Format profile : LC
Codec ID : 40
Duration : 6mn 17s
Bit rate mode : Variable
Bit rate : 156 Kbps
Maximum bit rate : 330 Kbps
Channel(s) : 2 channels
Channel positions : Front: L R
Sampling rate : 44.1 KHz
Compression mode : Lossy
Stream size : 7.02 MiB (6%)
Encoded date : UTC 2011-10-14 19:00:26
Tagged date : UTC 2011-10-14 19:00:26

Скриншот c названием фильма

Скриншоты




Показать сообщения:    

Текущее время: 02-Дек 23:03

Часовой пояс: UTC + 3


Вы не можете начинать темы
Вы не можете отвечать на сообщения
Вы не можете редактировать свои сообщения
Вы не можете удалять свои сообщения
Вы не можете голосовать в опросах
Вы не можете прикреплять файлы к сообщениям
Вы не можете скачивать файлы