(Classical) Jean Sibelius - Lemminkainen Suite; The Wood-Nymph - Lahti Symphony Orchestra, Osmo Vänskä (Vanska) - 2014, FLAC (image+.cue) lossless


 

[Цитировать]

Jean Sibelius - Lemminkäinen Suite; The Wood-Nymph - Lahti Symphony Orchestra, Osmo Vänskä
Жанр: Classical
Страна-производитель диска: Sweden
Год издания диска: 2014
Издатель (лейбл): BIS
Номер по каталогу: BIS-SACD-1745
Дата записи: 2006, 2007
Аудиокодек: FLAC
Тип рипа: image+.cue
Битрейт аудио: lossless
Продолжительность: 69:37
Источник: собственный рип
Наличие сканов в содержимом раздачи: да
Треклист:
Johan (Jean) Christian Julius Sibelius (1865–1957)
[1]-[4] Lemminkäinen Suite, Op. 22
(Four Legends from the Kalevala)
[5] Skogsrået (The Wood-Nymph), Op. 15
Исполнители:
Lahti Symphony Orchestra (Sinfonia Lahti)
Osmo Vänskä
conductor

Лог создания рипа

Exact Audio Copy V1.0 beta 3 from 29. August 2011
EAC extraction logfile from 22. October 2014, 0:02
Lahti Symphony Orchestra, Osmo Vanska / Sibelius - Lemminkainen Suite; The Wood-Nymph
Used drive : HL-DT-STDVDRAM GU70N Adapter: 0 ID: 0
Read mode : Secure
Utilize accurate stream : Yes
Defeat audio cache : Yes
Make use of C2 pointers : No
Read offset correction : 48
Overread into Lead-In and Lead-Out : No
Fill up missing offset samples with silence : Yes
Delete leading and trailing silent blocks : No
Null samples used in CRC calculations : Yes
Used interface : Native Win32 interface for Win NT & 2000
Used output format : User Defined Encoder
Selected bitrate : 128 kBit/s
Quality : High
Add ID3 tag : No
Command line compressor : C:\Program Files (x86)\Exact Audio Copy\Flac\flac.exe
Additional command line options : -V -8 -T "Date=%year%" -T "Genre=%genre%" %source%
TOC of the extracted CD
Track | Start | Length | Start sector | End sector
---------------------------------------------------------
1 | 0:00.00 | 15:09.01 | 0 | 68175
2 | 15:09.01 | 9:17.67 | 68176 | 110017
3 | 24:26.68 | 16:14.62 | 110018 | 183129
4 | 40:41.55 | 6:45.02 | 183130 | 213506
5 | 47:26.57 | 22:10.57 | 213507 | 313313
Range status and errors
Selected range
Filename C:\temp\BIS-SACD-1745 - Sibelius - Lemminkainen Suite; The Wood-Nymph\Sibelius - Lemminkainen Suite; The Wood-Nymph.wav
Peak level 98.8 %
Extraction speed 2.3 X
Range quality 99.9 %
Test CRC 49ED8F20
Copy CRC 49ED8F20
Copy OK
No errors occurred
AccurateRip summary
Track 1 accurately ripped (confidence 1) [0E3E4CF8] (AR v2)
Track 2 accurately ripped (confidence 1) [37CDBA42] (AR v2)
Track 3 accurately ripped (confidence 1) [3FE36BBF] (AR v2)
Track 4 accurately ripped (confidence 1) [44CC276E] (AR v2)
Track 5 accurately ripped (confidence 1) [8E6EBB06] (AR v2)
All tracks accurately ripped
End of status report
==== Log checksum 39FC9382BB4FE23D7964EF4F52C0CA396C5BCDA79BE420430B20FA7F7023969F ====



Показать сообщения:    

Текущее время: 03-Дек 09:42

Часовой пояс: UTC + 3


Вы не можете начинать темы
Вы не можете отвечать на сообщения
Вы не можете редактировать свои сообщения
Вы не можете удалять свои сообщения
Вы не можете голосовать в опросах
Вы не можете прикреплять файлы к сообщениям
Вы не можете скачивать файлы