Пантера (Андрей Сидельников) [2010 г., лирическая комедия, WEB-DLRip] Новокузнецкий драматический театр


 

[Цитировать]

Пантера Название театра: Новокузнецкий драматический театр.
Год выпуска: 2010.
Жанр: лирическая комедия.
Продолжительность: 01:25:04.
Режиссер: Андрей Сидельников (Санкт-Петербург).
Действующие лица и исполнители:
Пантера - Илона Литвиненко,
Соловакин - Сергей Стасюк,
Эпифания - Полина Зуева,
Илья - Андрей Грачев,
Данил Бухов- Евгений Любицкий,
1-й грузчик - Евгений Лапшин,
2-й грузчик - Андрей Ковзель.
О спектакле:
Спектакль по одной из последних пьес известного современного драматурга, режиссёра и художника Петра Гладилина «Пантера». Автор — выдающийся Драматург нашей современности: за сценарий к фильму «Аврора, или Что снилось спящей красавице» он был номинирован на премию «Оскар», в 2003 году стал лауреатом Всероссийского конкурса драматургов в номинации «Долг. Честь. Достоинство». Ни один театр России пьесу «Пантера» ещё не ставил, и Новокузнецкий театр драмы получил от драматурга разрешение на право первой постановки. Премьера будущего спектакля состоится в Международный День театра — 27 марта.
Комедию «Пантера» Пётр Гладилин представил читателю два года назад как часть той единственной большой книги, которую он пишет всю жизнь. При упругой и яркой внешней динамичности, захватывающей интриге пьеса по своему внутреннему содержанию глубоко раскрывает картину современных нравов. В центре внимания — характер женщины, который автор, по его собственному признанию, «подсмотрел в жизни». Контрапунктом пьесы является история любви двух людей, противостоящих друг другу, казалось бы, по всем показателям. Парадоксальна их встреча, враждебны их диалоги, непредсказуемы их отношения. Интересно то, что каждый из них представляет одну из сторон вечного противостояния между подлинным искусством и массовым — заполонившей всё наше жизненное пространство попсой. Ноту острой пикантности привносит в это противостояние всегда неповторимый и новый конфликт между мужчиной и женщиной с такой неожиданной, совершенно ошеломляющей развязкой.

Дополнительная информация:
Страна: Россия .
Автор: Петр Гладилин.
Художник-постановщик: Роман Ватолкин.
Балетмейстер: Юлия Дьячкова.
Музыкальное оформление: Владимир Бычковский.
Автор песни "По лесенке" Андрей Сидельников.
Видео: Станислав Кудряшов.

О спектакле.
Релиз
Рип sharky.

Качество видео:...WEB-DLRip
Формат:.................AVI
Видео:..704x528 (1.33:1), 25 fps, DivX Codec 4.x ~1700 kbps avg, 0.18 bit/pixel
Аудио:..44.100 kHz, MPEG Layer 3, 2 ch, ~128.00 kbps avg

Отчет MI

Общее
Полное имя : Pantera_Novokuzneckij.dram.teatr.2010.DivX.WEB-DLRip.fenixclub.avi
Format : AVI
Format/Info : Audio Video Interleave
File size : 1.09 GiB
Duration : 1h 25mn
Overall bit rate : 1 838 Kbps
Video
ID : 0
Format : MPEG-4 Visual
Format settings, BVOP : 1
Format settings, QPel : No
Format settings, GMC : No warppoints
Format settings, Matrix : Default (H.263)
Muxing mode : Packed bitstream
Codec ID : DX50
Codec ID/Hint : DivX 5
Duration : 1h 25mn
Bit rate : 1 701 Kbps
Width : 704 pixels
Height : 528 pixels
Display aspect ratio : 4:3
Frame rate : 25.000 fps
Color space : YUV
Chroma subsampling : 4:2:0
Bit depth : 8 bits
Scan type : Progressive
Compression mode : Lossy
Bits/(Pixel*Frame) : 0.183
Stream size : 1.01 GiB (93%)
Title : Video
Writing library : DivX 3013
Audio
ID : 1
Format : MPEG Audio
Format version : Version 1
Format profile : Layer 3
Codec ID : 55
Codec ID/Hint : MP3
Duration : 1h 25mn
Bit rate mode : Constant
Bit rate : 128 Kbps
Channel(s) : 2 channels
Sampling rate : 44.1 KHz
Compression mode : Lossy
Stream size : 77.9 MiB (7%)
Alignment : Split accross interleaves
Interleave, duration : 40 ms (1.00 video frame)
Interleave, preload duration : 500 ms
Title : Audio

Скриншоты


Альтернативный хост





Показать сообщения:    

Текущее время: 09-Дек 06:58

Часовой пояс: UTC + 3


Вы не можете начинать темы
Вы не можете отвечать на сообщения
Вы не можете редактировать свои сообщения
Вы не можете удалять свои сообщения
Вы не можете голосовать в опросах
Вы не можете прикреплять файлы к сообщениям
Вы не можете скачивать файлы