(ECM New Series / Classical, Romantic, Modern) Beethoven - Streichquartett F-Dur, Bruckner - Streichquartett c-Moll, Hartmann - Streichquartett Nr. 2, Holliger - Streichquartett Nr. 2 (Zehetmair Quartett) [2CD] - 2013, FLAC (tracks+.cue), lossless


 

[Цитировать]

Zehetmair Quartett
Beethoven, Bruckner, Hartmann & Holliger: String Quartets
- Жанр: Classical, Romantic, Modern
Страна-производитель диска: Germany
Год издания диска: 2013
Издатель (лейбл): ECM New Series
Номер по каталогу: 2195/96, 476 3942
Дата записи: 2002, 2010
Аудиокодек: FLAC
Тип рипа: tracks+.cue
Битрейт аудио: lossless
Продолжительность: 01:34:36
Релизер: manhneovn
Купить: Presto Classical
Наличие сканов: да-Zehetmair Quartett:
Françoise Groben - cello (2.01-2.03)
Ruth Killius - viola
Kuba Jakowicz - violin (1.01-1.08, 2.04)
Matthias Metzger - violin (2.01-2.03)
Thomas Zehetmair - violin-Recorded at Radio Studio DRS
Beethoven, Bruckner, Holliger - April/May 2010
Hartmann - April 2002
-ТреклистCD 1 (00:44:11)
Ludwig van Beethoven
String Quartet No. 16 in F major, Op. 135
01. 1. Allegretto (5:52)
02. 2. Vivace (3:19)
03. 3. Lento Assai, Cantante E Tranquillo (6:28)
04. 4. Grave, Allegro (6:34)
Anton Bruckner
String Quartet in C minor, WAB111
05. 1. Allegro Moderato (8:20)
06. 2. Andante (6:42)
07. 3. Scherzo (3:13)
08. 4. Rondo (3:42)
CD 2 (00:50:25)
Karl Amadeus Hartmann
String Quartet No. 2
01. 1. Langsam - äußerst lebhaft und sehr energisch (9:46)
02. 2. Andantino Sehr ausdrucksvoll (10:08)
03. 3. Presto (6:26)
Heinz Holliger
04. Streichquartett Nr. 2 (To Elliot Carter) (24:05)

ОтчётыCD 1Лог создания рипа

Exact Audio Copy V1.0 beta 3 from 29. August 2011
EAC extraction logfile from 29. October 2014, 12:58
Zehetmair Quartett / Beethoven, Bruckner, Hartmann, Holliger CD1
Used drive : ATAPI iHBS112 2 Adapter: 2 ID: 0
Read mode : Secure
Utilize accurate stream : Yes
Defeat audio cache : Yes
Make use of C2 pointers : No
Read offset correction : 6
Overread into Lead-In and Lead-Out : No
Fill up missing offset samples with silence : Yes
Delete leading and trailing silent blocks : No
Null samples used in CRC calculations : Yes
Used interface : Native Win32 interface for Win NT & 2000
Gap handling : Appended to previous track
Used output format : User Defined Encoder
Selected bitrate : 1024 kBit/s
Quality : Low
Add ID3 tag : No
Command line compressor : C:\Program Files\FLAC Frontend\tools\flac.exe
Additional command line options : -8 -V -T "ARTIST=%artist%" -T "TITLE=%title%" -T "ALBUM=%albumtitle%" -T "DATE=%year%" -T "TRACKNUMBER=%tracknr%" -T "TOTALTRACKS=%numtracks%" -T "GENRE=%genre%" -T "ALBUMARTIST=%albumartist%" -T "ALBUM ARTIST=%albumartist%" -T "COMPOSER=%composer%" -T "PERFORMER=%albuminterpret%" -T "DISCNUMBER=%cdnumber%" -T "TOTALDISCS=%totalcds%" -T "COMMENT=EAC Secure Mode, Test & Copy, AccurateRip, FLAC -8" %source%
TOC of the extracted CD
Track | Start | Length | Start sector | End sector
---------------------------------------------------------
1 | 0:00.00 | 5:52.24 | 0 | 26423
2 | 5:52.24 | 3:19.13 | 26424 | 41361
3 | 9:11.37 | 6:27.43 | 41362 | 70429
4 | 15:39.05 | 6:34.18 | 70430 | 99997
5 | 22:13.23 | 8:20.24 | 99998 | 137521
6 | 30:33.47 | 6:42.14 | 137522 | 167685
7 | 37:15.61 | 3:13.05 | 167686 | 182165
8 | 40:28.66 | 3:42.22 | 182166 | 198837
Track 1
Filename P:\DL\Zehetmair Quartett - Beethoven, Bruckner, Hartmann, Holliger CD1 (2013) [FLAC]\01 - String Quartet #16 In F, Op. 135 - 1. Allegretto.wav
Pre-gap length 0:00:02.00
Peak level 100.0 %
Extraction speed 5.5 X
Track quality 100.0 %
Test CRC 6CE5526A
Copy CRC 6CE5526A
Accurately ripped (confidence 3) [97BDE7F4] (AR v2)
Copy OK
Track 2
Filename P:\DL\Zehetmair Quartett - Beethoven, Bruckner, Hartmann, Holliger CD1 (2013) [FLAC]\02 - String Quartet #16 In F, Op. 135 - 2. Vivace.wav
Pre-gap length 0:00:00.02
Peak level 78.7 %
Extraction speed 4.7 X
Track quality 99.9 %
Test CRC AF84D2E6
Copy CRC AF84D2E6
Accurately ripped (confidence 3) [CF48A508] (AR v2)
Copy OK
Track 3
Filename P:\DL\Zehetmair Quartett - Beethoven, Bruckner, Hartmann, Holliger CD1 (2013) [FLAC]\03 - String Quartet #16 In F, Op. 135 - 3. Lento Assai, Cantante E Tranquillo.wav
Pre-gap length 0:00:00.02
Peak level 40.6 %
Extraction speed 6.8 X
Track quality 100.0 %
Test CRC 8C650F4D
Copy CRC 8C650F4D
Accurately ripped (confidence 3) [F835B7F4] (AR v2)
Copy OK
Track 4
Filename P:\DL\Zehetmair Quartett - Beethoven, Bruckner, Hartmann, Holliger CD1 (2013) [FLAC]\04 - String Quartet #16 In F, Op. 135 - 4. Grave, Allegro.wav
Pre-gap length 0:00:00.02
Peak level 79.1 %
Extraction speed 7.5 X
Track quality 100.0 %
Test CRC 57ABBF7B
Copy CRC 57ABBF7B
Accurately ripped (confidence 3) [6B7B8303] (AR v2)
Copy OK
Track 5
Filename P:\DL\Zehetmair Quartett - Beethoven, Bruckner, Hartmann, Holliger CD1 (2013) [FLAC]\05 - String Quartet In C Minor, WAB 111 - 1. Allegro Moderato.wav
Pre-gap length 0:00:05.11
Peak level 74.9 %
Extraction speed 7.6 X
Track quality 99.9 %
Test CRC D409DBA2
Copy CRC D409DBA2
Accurately ripped (confidence 3) [697C5C88] (AR v2)
Copy OK
Track 6
Filename P:\DL\Zehetmair Quartett - Beethoven, Bruckner, Hartmann, Holliger CD1 (2013) [FLAC]\06 - String Quartet In C Minor, WAB 111 - 2. Andante.wav
Pre-gap length 0:00:00.02
Peak level 45.2 %
Extraction speed 8.9 X
Track quality 100.0 %
Test CRC 7E1C10CB
Copy CRC 7E1C10CB
Accurately ripped (confidence 3) [743411E2] (AR v2)
Copy OK
Track 7
Filename P:\DL\Zehetmair Quartett - Beethoven, Bruckner, Hartmann, Holliger CD1 (2013) [FLAC]\07 - String Quartet In C Minor, WAB 111 - 3. Scherzo.wav
Pre-gap length 0:00:00.02
Peak level 58.1 %
Extraction speed 8.3 X
Track quality 100.0 %
Test CRC 553BFF01
Copy CRC 553BFF01
Accurately ripped (confidence 3) [E2780239] (AR v2)
Copy OK
Track 8
Filename P:\DL\Zehetmair Quartett - Beethoven, Bruckner, Hartmann, Holliger CD1 (2013) [FLAC]\08 - String Quartet In C Minor, WAB 111 - 4. Rondo.wav
Pre-gap length 0:00:00.02
Peak level 72.9 %
Extraction speed 8.8 X
Track quality 100.0 %
Test CRC 37FBA5ED
Copy CRC 37FBA5ED
Accurately ripped (confidence 3) [C0A6F7E7] (AR v2)
Copy OK
All tracks accurately ripped
No errors occurred
End of status report
---- CUETools DB Plugin V2.1.3
[CTDB TOCID: bEvAneLiniyqMeCofdc2ArbDpYc-] found, Submit result: bEvAneLiniyqMeCofdc2ArbDpYc- has been confirmed
[37b8a1b5] (4/4) Accurately ripped
==== Log checksum 0F96F795EA3938B17E764B907D6862060EA3FBA0ED12F321D8295F8913D1A66F ====

Содержание индексной карты (.CUE)

REM GENRE Classical
REM DATE 2013
REM DISCID 5D0A5B08
REM COMMENT "ExactAudioCopy v1.0b3"
REM DISCNUMBER 1
REM TOTALDISCS 2
PERFORMER "Zehetmair Quartett"
TITLE "Beethoven, Bruckner, Hartmann, Holliger"
FILE "01 - String Quartet #16 In F, Op. 135 - 1. Allegretto.wav" WAVE
TRACK 01 AUDIO
TITLE "String Quartet #16 In F, Op. 135 - 1. Allegretto"
PERFORMER "Zehetmair Quartett"
INDEX 01 00:00:00
TRACK 02 AUDIO
TITLE "String Quartet #16 In F, Op. 135 - 2. Vivace"
PERFORMER "Zehetmair Quartett"
INDEX 00 05:52:22
FILE "02 - String Quartet #16 In F, Op. 135 - 2. Vivace.wav" WAVE
INDEX 01 00:00:00
TRACK 03 AUDIO
TITLE "String Quartet #16 In F, Op. 135 - 3. Lento Assai, Cantante E Tranquillo"
PERFORMER "Zehetmair Quartett"
INDEX 00 03:19:11
FILE "03 - String Quartet #16 In F, Op. 135 - 3. Lento Assai, Cantante E Tranquillo.wav" WAVE
INDEX 01 00:00:00
TRACK 04 AUDIO
TITLE "String Quartet #16 In F, Op. 135 - 4. Grave, Allegro"
PERFORMER "Zehetmair Quartett"
INDEX 00 06:27:41
FILE "04 - String Quartet #16 In F, Op. 135 - 4. Grave, Allegro.wav" WAVE
INDEX 01 00:00:00
TRACK 05 AUDIO
TITLE "String Quartet In C Minor, WAB 111 - 1. Allegro Moderato"
PERFORMER "Zehetmair Quartett"
INDEX 00 06:29:07
FILE "05 - String Quartet In C Minor, WAB 111 - 1. Allegro Moderato.wav" WAVE
INDEX 01 00:00:00
TRACK 06 AUDIO
TITLE "String Quartet In C Minor, WAB 111 - 2. Andante"
PERFORMER "Zehetmair Quartett"
INDEX 00 08:20:22
FILE "06 - String Quartet In C Minor, WAB 111 - 2. Andante.wav" WAVE
INDEX 01 00:00:00
TRACK 07 AUDIO
TITLE "String Quartet In C Minor, WAB 111 - 3. Scherzo"
PERFORMER "Zehetmair Quartett"
INDEX 00 06:42:12
FILE "07 - String Quartet In C Minor, WAB 111 - 3. Scherzo.wav" WAVE
INDEX 01 00:00:00
TRACK 08 AUDIO
TITLE "String Quartet In C Minor, WAB 111 - 4. Rondo"
PERFORMER "Zehetmair Quartett"
INDEX 00 03:13:03
FILE "08 - String Quartet In C Minor, WAB 111 - 4. Rondo.wav" WAVE
INDEX 01 00:00:00

Лог проверки качества

-----------------------
DON'T MODIFY THIS FILE
-----------------------
PERFORMER: auCDtect Task Manager, ver. 1.6.0 RC1 build 1.6.0.1
Copyright (c) 2008-2010 y-soft. All rights reserved
http://y-soft.org
ANALYZER: auCDtect: CD records authenticity detector, version 0.8.2
Copyright (c) 2004 Oleg Berngardt. All rights reserved.
Copyright (c) 2004 Alexander Djourik. All rights reserved.
FILE: 08 - String Quartet In C Minor, WAB 111 - 4. Rondo.flac
Size: 17300592 Hash: 25B706F4D97DE50C25DC177FE8EEEB1E Accuracy: -m0
Conclusion: CDDA 100%
Signature: 5FAC2E67CAB812553006B9EFE8D43658D26B3FF8
FILE: 07 - String Quartet In C Minor, WAB 111 - 3. Scherzo.flac
Size: 14686919 Hash: 5FDB486B92AB883C4BCB724D0C32BFB3 Accuracy: -m0
Conclusion: CDDA 100%
Signature: E6C61BAC0A0BB999E578840C602D87DE82F302C3
FILE: 06 - String Quartet In C Minor, WAB 111 - 2. Andante.flac
Size: 26540051 Hash: 560169BF35F73346A92B31F97A013C11 Accuracy: -m0
Conclusion: CDDA 100%
Signature: 2F5F916F1322AAF6111F67031E299DB72BDED4AA
FILE: 05 - String Quartet In C Minor, WAB 111 - 1. Allegro Moderato.flac
Size: 34939998 Hash: 2F33BFBB72E2F375F9F6166C5DAC5A00 Accuracy: -m0
Conclusion: CDDA 99%
Signature: AB55C989BBCC6DECCCBDA201E2D5638D4AFF7313
FILE: 04 - String Quartet #16 In F, Op. 135 - 4. Grave, Allegro.flac
Size: 26924960 Hash: 4605AA28FDB4EE889376D48B88DAA852 Accuracy: -m0
Conclusion: CDDA 100%
Signature: A05ADB884AD997C184C40A517B1A79BCB2CBB324
FILE: 03 - String Quartet #16 In F, Op. 135 - 3. Lento Assai, Cantante E Tranquillo.flac
Size: 22084480 Hash: 041E5232732FAE66D232FFDF0E6EC7EF Accuracy: -m0
Conclusion: CDDA 100%
Signature: 742699ECB5F9F9E2B110618311689B25945AB113
FILE: 02 - String Quartet #16 In F, Op. 135 - 2. Vivace.flac
Size: 14307145 Hash: 398F18BA2A0BFD695AD2D1AE9CA82737 Accuracy: -m0
Conclusion: CDDA 100%
Signature: BCA344AEBAA684E1DAB77F1EC5417C4C988D5382
FILE: 01 - String Quartet #16 In F, Op. 135 - 1. Allegretto.flac
Size: 24098278 Hash: 32D49BF8DB5B7B7084F3A3F87BB79AFC Accuracy: -m0
Conclusion: CDDA 100%
Signature: F71A9DC2C62B18D2B5B5E7CFC0DB465553EF81C6

CD 2Лог создания рипа

Exact Audio Copy V1.0 beta 3 from 29. August 2011
EAC extraction logfile from 29. October 2014, 13:49
Zehetmair Quartett / Beethoven, Bruckner, Hartmann, Holliger CD2
Used drive : ATAPI iHBS112 2 Adapter: 2 ID: 0
Read mode : Secure
Utilize accurate stream : Yes
Defeat audio cache : Yes
Make use of C2 pointers : No
Read offset correction : 6
Overread into Lead-In and Lead-Out : No
Fill up missing offset samples with silence : Yes
Delete leading and trailing silent blocks : No
Null samples used in CRC calculations : Yes
Used interface : Native Win32 interface for Win NT & 2000
Gap handling : Appended to previous track
Used output format : User Defined Encoder
Selected bitrate : 1024 kBit/s
Quality : Low
Add ID3 tag : No
Command line compressor : C:\Program Files\FLAC Frontend\tools\flac.exe
Additional command line options : -8 -V -T "ARTIST=%artist%" -T "TITLE=%title%" -T "ALBUM=%albumtitle%" -T "DATE=%year%" -T "TRACKNUMBER=%tracknr%" -T "TOTALTRACKS=%numtracks%" -T "GENRE=%genre%" -T "ALBUMARTIST=%albumartist%" -T "ALBUM ARTIST=%albumartist%" -T "COMPOSER=%composer%" -T "PERFORMER=%albuminterpret%" -T "DISCNUMBER=%cdnumber%" -T "TOTALDISCS=%totalcds%" -T "COMMENT=EAC Secure Mode, Test & Copy, AccurateRip, FLAC -8" %source%
TOC of the extracted CD
Track | Start | Length | Start sector | End sector
---------------------------------------------------------
1 | 0:00.00 | 9:45.53 | 0 | 43927
2 | 9:45.53 | 10:08.00 | 43928 | 89527
3 | 19:53.53 | 6:26.30 | 89528 | 118507
4 | 26:20.08 | 24:05.09 | 118508 | 226891
Track 1
Filename P:\DL\Zehetmair Quartett - Beethoven, Bruckner, Hartmann, Holliger CD2 (2010) [FLAC]\01 - Streichquartett Nr. 2 - 1. Langsam - auBerst lebhaft und sehr energisch.wav
Pre-gap length 0:00:02.00
Peak level 100.0 %
Extraction speed 2.3 X
Track quality 100.0 %
Test CRC A725FDA1
Copy CRC A725FDA1
Accurately ripped (confidence 3) [F6DF23BC] (AR v2)
Copy OK
Track 2
Filename P:\DL\Zehetmair Quartett - Beethoven, Bruckner, Hartmann, Holliger CD2 (2010) [FLAC]\02 - Streichquartett Nr. 2 - 2. Andantino Sehr ausdrucksvoll.wav
Peak level 100.0 %
Extraction speed 2.8 X
Track quality 100.0 %
Test CRC FC449B9A
Copy CRC FC449B9A
Accurately ripped (confidence 3) [91F0C853] (AR v2)
Copy OK
Track 3
Filename P:\DL\Zehetmair Quartett - Beethoven, Bruckner, Hartmann, Holliger CD2 (2010) [FLAC]\03 - Streichquartett Nr. 2 - 3. Presto.wav
Peak level 100.0 %
Extraction speed 2.5 X
Track quality 99.9 %
Test CRC FAF88310
Copy CRC FAF88310
Accurately ripped (confidence 3) [1303C6FA] (AR v2)
Copy OK
Track 4
Filename P:\DL\Zehetmair Quartett - Beethoven, Bruckner, Hartmann, Holliger CD2 (2010) [FLAC]\04 - Streichquartett Nr. 2 (To Elliot Carter).wav
Pre-gap length 0:00:04.74
Peak level 99.3 %
Extraction speed 3.9 X
Track quality 100.0 %
Test CRC D636F432
Copy CRC D636F432
Accurately ripped (confidence 3) [2CCBC726] (AR v2)
Copy OK
All tracks accurately ripped
No errors occurred
End of status report
---- CUETools DB Plugin V2.1.3
[CTDB TOCID: dliFj83w0HbpCIx45OFrK9jsI50-] found, Submit result: dliFj83w0HbpCIx45OFrK9jsI50- has been confirmed
[198b6503] (1/3) Differs in 356 samples @25:10:18,40:02:08
[3e580823] (2/3) Accurately ripped
You can use CUETools to repair this rip.
==== Log checksum 06527DC3D4897A8A22715FE06369F7C105016935762B5C2A05B3DE4CCAD20DB2 ====

Содержание индексной карты (.CUE)

REM GENRE Classical
REM DATE 2013
REM DISCID 360BD104
REM COMMENT "ExactAudioCopy v1.0b3"
REM DISCNUMBER 2
REM TOTALDISCS 2
PERFORMER "Zehetmair Quartett"
TITLE "Beethoven, Bruckner, Hartmann, Holliger"
FILE "01 - Streichquartett Nr. 2 - 1. Langsam - auBerst lebhaft und sehr energisch.wav" WAVE
TRACK 01 AUDIO
TITLE "Streichquartett Nr. 2 - 1. Langsam - äußerst lebhaft und sehr energisch"
PERFORMER "Zehetmair Quartett"
INDEX 01 00:00:00
FILE "02 - Streichquartett Nr. 2 - 2. Andantino Sehr ausdrucksvoll.wav" WAVE
TRACK 02 AUDIO
TITLE "Streichquartett Nr. 2 - 2. Andantino Sehr ausdrucksvoll"
PERFORMER "Zehetmair Quartett"
INDEX 01 00:00:00
FILE "03 - Streichquartett Nr. 2 - 3. Presto.wav" WAVE
TRACK 03 AUDIO
TITLE "Streichquartett Nr. 2 - 3. Presto"
PERFORMER "Zehetmair Quartett"
INDEX 01 00:00:00
TRACK 04 AUDIO
TITLE "Streichquartett Nr. 2 (To Elliot Carter)"
PERFORMER "Zehetmair Quartett"
INDEX 00 06:21:31
FILE "04 - Streichquartett Nr. 2 (To Elliot Carter).wav" WAVE
INDEX 01 00:00:00

Лог проверки качества

-----------------------
DON'T MODIFY THIS FILE
-----------------------
PERFORMER: auCDtect Task Manager, ver. 1.6.0 RC1 build 1.6.0.1
Copyright (c) 2008-2010 y-soft. All rights reserved
http://y-soft.org
ANALYZER: auCDtect: CD records authenticity detector, version 0.8.2
Copyright (c) 2004 Oleg Berngardt. All rights reserved.
Copyright (c) 2004 Alexander Djourik. All rights reserved.
FILE: 04 - Streichquartett Nr. 2 (To Elliot Carter).flac
Size: 99060683 Hash: AE0ABB86A9BC180490CE2F17BB86C5D9 Accuracy: -m0
Conclusion: CDDA 100%
Signature: 19839DC8CD516E26E55016B37E28704C29910320
FILE: 03 - Streichquartett Nr. 2 - 3. Presto.flac
Size: 34434229 Hash: 3884ECC15EC5B79FD6835F80E6BB7FAF Accuracy: -m0
Conclusion: CDDA 100%
Signature: 4A2649FDA68A28B83CFC977E8FD17422996CFD61
FILE: 02 - Streichquartett Nr. 2 - 2. Andantino Sehr ausdrucksvoll.flac
Size: 42477183 Hash: 51A8F88F18A4F73053DED98320FDDA0E Accuracy: -m0
Conclusion: CDDA 100%
Signature: 5D5D1FCD966EC6350779896EC84FEDC82611A3DC
FILE: 01 - Streichquartett Nr. 2 - 1. Langsam - auBerst lebhaft und sehr energisch.flac
Size: 45950840 Hash: 3D75F3631DE838C749CE6C27750282A6 Accuracy: -m0
Conclusion: CDDA 100%
Signature: FC6DB7087830E7A297041C441EEF19E6B74A4A27

Доп. информация

Релиз полностью готов к воспроизведению в аудиоплеере (я ориентировался на foobar2000)При скачивании, если необходимо, переименуйте папку, в которой будет находиться альбомБольшая просьба к скачавшим поддерживать раздачу! Помогайте другим, ведь вам тоже может понадобиться помощь!Не забываем говорить "Спасибо"!Комментарии приветствуются!



Показать сообщения:    

Текущее время: 11-Дек 11:07

Часовой пояс: UTC + 3


Вы не можете начинать темы
Вы не можете отвечать на сообщения
Вы не можете редактировать свои сообщения
Вы не можете удалять свои сообщения
Вы не можете голосовать в опросах
Вы не можете прикреплять файлы к сообщениям
Вы не можете скачивать файлы