(Strings) G.Rossini - String Sonatas 1-6, G.Donizetti - String Quartet in D major, L.Cherubini - Etude No.2, V.Bellini - Oboe Concerto in E flat (Academy of St. Martin in the Fields, Neville Marriner) - 1995, FLAC (image+.cue) lossless


 

[Цитировать]

Gioachino Rossini - String Sonatas 1-6
Donizetti - String Quartet in D major, Cherubini - Etude No.2, Bellini - Oboe Concerto in E flat
Academy of St. Martin in the Fields | Neville Marriner
Жанр: Chamber
Страна-производитель диска: Germany
Год издания диска: 1995
Издатель (лейбл): Decca
Номер по каталогу: 443 838-2
Дата записи: 1964-1968
Аудиокодек: FLAC
Тип рипа: image+.cue
Битрейт аудио: lossless
Продолжительность: 1:51:56
Источник: скачано с odeonmusic
Наличие сканов в содержимом раздачи: да
Треклист:
CD 1
Gioacchino Rossini - String Sonata No.1 in G major
1. 1. Moderato 5:09
2. 2. Andantino 4:12
3. 3. Allegro 2:43
String Sonata No.2 in A minor
4. 1. Allegro 6:48
5. 2. Andantino 2:40
6. 3. Allegro 2:14
String Sonata No.3 in C major
7. 1. Allegro 6:04
8. 2. Andante 4:08
9. 3. Moderato 3:12
String Sonata No.4 in B flat major
10. 1. Allegro vivace 7:10
11. 2. Andantino 2:53
12. 3. Allegretto 2:46
CD 2
String Sonata No.5 in E flat major
1. 1. Allegro Vivace 7:43
2. 2. Andantino 3:13
3. 3. Allegretto 3:42
String Sonata No.6 in D major
4. 1. Allegro spirituoso 7:38
5. 2. Andante assai 2:23
6. 3. Tempesta (Allegro) 5:13
Gaetano Donizetti - String Quartet in D major (arr. for string orchestra)
7. 1. Allegro 6:51
8. 2. Larghetto 3:48
9. 3. Presto 2:13
10. 4. Allegro 4:35
Luigi Cherubini - Etude No.2 for French horn and strings
11. Largo-Allegro-Moderato 6:17
Vincenzo Bellini - Oboe Concerto in E flat
12. Maestoso e deciso-Larghetto cantabile-Allegro polonaise 7:24
Исполнители:
Academy of St. Martin in the Fields
Neville Marriner - conductor

Лог создания рипа

Лог создания рипа CD1

Exact Audio Copy V1.0 beta 3 from 29. August 2011
EAC extraction logfile from 22. April 2013, 17:07
Sir Neville Marriner / Rossini - String Sonatas 1-6 - Neville Marriner (Disc 1)
Used drive : TSSTcorpCDDVDW SH-222BB Adapter: 2 ID: 1
Read mode : Secure
Utilize accurate stream : Yes
Defeat audio cache : Yes
Make use of C2 pointers : No
Read offset correction : 6
Overread into Lead-In and Lead-Out : No
Fill up missing offset samples with silence : Yes
Delete leading and trailing silent blocks : No
Null samples used in CRC calculations : Yes
Used interface : Native Win32 interface for Win NT & 2000
Used output format : User Defined Encoder
Selected bitrate : 1024 kBit/s
Quality : High
Add ID3 tag : No
Command line compressor : C:\Program Files\Exact Audio Copy\Flac\flac.exe
Additional command line options : -8 -V -T "TITLE=%title%" -T "ARTIST=%artist%" -T "ALBUMARTIST=%albumartist%" -T "ALBUM=%albumtitle%" -T "DATE=%year%" -T "TRACKNUMBER=%tracknr%" -T "TRACKTOTAL=%numtracks%" -T "GENRE=%genre%" -T "COMMENT=%comment%" -T "PERFORMER=%albuminterpret%" -T "COMPOSER=%composer%" %source% -o %dest%
TOC of the extracted CD
Track | Start | Length | Start sector | End sector
---------------------------------------------------------
1 | 0:00.32 | 5:09.63 | 32 | 23269
2 | 5:10.20 | 4:11.50 | 23270 | 42144
3 | 9:21.70 | 2:49.00 | 42145 | 54819
4 | 12:10.70 | 6:49.37 | 54820 | 85531
5 | 19:00.32 | 2:39.38 | 85532 | 97494
6 | 21:39.70 | 2:20.62 | 97495 | 108056
7 | 24:00.57 | 6:05.38 | 108057 | 135469
8 | 30:06.20 | 4:09.50 | 135470 | 154194
9 | 34:15.70 | 3:17.50 | 154195 | 169019
10 | 37:33.45 | 7:11.25 | 169020 | 201369
11 | 44:44.70 | 2:54.50 | 201370 | 214469
12 | 47:39.45 | 2:44.00 | 214470 | 226769
Range status and errors
Selected range
Filename G:\Ripped general\[1896] Rossini – String Sonatas 1-6 – Neville Marriner\cd1\Rossini - String Sonatas 1-6 - Neville Marriner (Disc 1).wav
Peak level 94.5 %
Extraction speed 2.3 X
Range quality 100.0 %
Test CRC C70818E2
Copy CRC C70818E2
Copy OK
No errors occurred
AccurateRip summary
Track 1 accurately ripped (confidence 10) [7D91BD16] (AR v1)
Track 2 accurately ripped (confidence 2) [1642AEC6] (AR v2)
Track 3 accurately ripped (confidence 2) [55EFEF10] (AR v2)
Track 4 accurately ripped (confidence 2) [132490C4] (AR v2)
Track 5 accurately ripped (confidence 2) [104CB5A9] (AR v2)
Track 6 accurately ripped (confidence 2) [4EDD0CF3] (AR v2)
Track 7 accurately ripped (confidence 2) [21711F05] (AR v2)
Track 8 accurately ripped (confidence 2) [DB709E1A] (AR v2)
Track 9 accurately ripped (confidence 2) [EDB4A68A] (AR v2)
Track 10 accurately ripped (confidence 2) [E85D9963] (AR v2)
Track 11 accurately ripped (confidence 2) [F90255A3] (AR v2)
Track 12 accurately ripped (confidence 2) [142B2511] (AR v2)
All tracks accurately ripped
End of status report

Лог создания рипа CD2

Exact Audio Copy V1.0 beta 3 from 29. August 2011
EAC extraction logfile from 22. April 2013, 18:19
Sir Neville Marriner / Rossini - String Sonatas 1-6 - Neville Marriner (Disc 2)
Used drive : TSSTcorpCDDVDW SH-222BB Adapter: 2 ID: 1
Read mode : Secure
Utilize accurate stream : Yes
Defeat audio cache : Yes
Make use of C2 pointers : No
Read offset correction : 6
Overread into Lead-In and Lead-Out : No
Fill up missing offset samples with silence : Yes
Delete leading and trailing silent blocks : No
Null samples used in CRC calculations : Yes
Used interface : Native Win32 interface for Win NT & 2000
Used output format : User Defined Encoder
Selected bitrate : 1024 kBit/s
Quality : High
Add ID3 tag : No
Command line compressor : C:\Program Files\Exact Audio Copy\Flac\flac.exe
Additional command line options : -8 -V -T "TITLE=%title%" -T "ARTIST=%artist%" -T "ALBUMARTIST=%albumartist%" -T "ALBUM=%albumtitle%" -T "DATE=%year%" -T "TRACKNUMBER=%tracknr%" -T "TRACKTOTAL=%numtracks%" -T "GENRE=%genre%" -T "COMMENT=%comment%" -T "PERFORMER=%albuminterpret%" -T "COMPOSER=%composer%" %source% -o %dest%
TOC of the extracted CD
Track | Start | Length | Start sector | End sector
---------------------------------------------------------
1 | 0:00.33 | 7:45.00 | 33 | 34907
2 | 7:45.33 | 3:14.50 | 34908 | 49507
3 | 11:00.08 | 3:48.37 | 49508 | 66644
4 | 14:48.45 | 7:39.25 | 66645 | 101094
5 | 22:27.70 | 2:23.50 | 101095 | 111869
6 | 24:51.45 | 5:18.50 | 111870 | 135769
7 | 30:10.20 | 6:53.00 | 135770 | 166744
8 | 37:03.20 | 3:50.25 | 166745 | 184019
9 | 40:53.45 | 2:13.63 | 184020 | 194057
10 | 43:07.33 | 4:40.25 | 194058 | 215082
11 | 47:47.58 | 6:22.50 | 215083 | 243782
12 | 54:10.33 | 7:23.62 | 243783 | 277069
Range status and errors
Selected range
Filename G:\Ripped general\[1896] Rossini – String Sonatas 1-6 – Neville Marriner\cd2\Rossini - String Sonatas 1-6 - Neville Marriner (Disc 2).wav
Peak level 96.5 %
Extraction speed 2.3 X
Range quality 100.0 %
Test CRC 290D002C
Copy CRC 290D002C
Copy OK
No errors occurred
AccurateRip summary
Track 1 accurately ripped (confidence 7) [106CE395] (AR v1)
Track 2 accurately ripped (confidence 8) [F3A5D244] (AR v1)
Track 3 accurately ripped (confidence 8) [F338AB14] (AR v1)
Track 4 accurately ripped (confidence 8) [CCFDD937] (AR v1)
Track 5 accurately ripped (confidence 8) [8FC38BD6] (AR v1)
Track 6 accurately ripped (confidence 8) [BF6F6042] (AR v1)
Track 7 accurately ripped (confidence 8) [069A9389] (AR v1)
Track 8 accurately ripped (confidence 8) [A0F4A544] (AR v1)
Track 9 accurately ripped (confidence 8) [E3FB6A4F] (AR v1)
Track 10 accurately ripped (confidence 8) [FBEC6B65] (AR v1)
Track 11 accurately ripped (confidence 8) [15B68AD6] (AR v1)
Track 12 accurately ripped (confidence 8) [049BD29F] (AR v1)
All tracks accurately ripped
End of status report

Лог проверки качества

Лог проверки качества CD1

AUDIOCHECKER v2.0 beta (build 457) - by Dester - opdester@freemail.hu
~~~~~~~~~~~~~~~~~~~~~~~~~~~~~~~~~~
-=== DO NOT EDIT THIS FILE! ===-
Path: ...\CD1
1 -=- Rossini - String Sonatas 1-6 - Neville Marriner (Disc 1).flac -=- CDDA (100%)
256525268

Лог проверки качества CD2

AUDIOCHECKER v2.0 beta (build 457) - by Dester - opdester@freemail.hu
~~~~~~~~~~~~~~~~~~~~~~~~~~~~~~~~~~
-=== DO NOT EDIT THIS FILE! ===-
Path: ...\CD2
1 -=- Rossini - String Sonatas 1-6 - Neville Marriner (Disc 2).flac -=- CDDA (100%)
255280084



Показать сообщения:    

Текущее время: 04-Дек 04:59

Часовой пояс: UTC + 3


Вы не можете начинать темы
Вы не можете отвечать на сообщения
Вы не можете редактировать свои сообщения
Вы не можете удалять свои сообщения
Вы не можете голосовать в опросах
Вы не можете прикреплять файлы к сообщениям
Вы не можете скачивать файлы