(Classical) Joseph Haydn - Die sieben letzten Worte unseres Erlosers am Kreuze - Cuarteto Casals - 2014, FLAC (image+.cue) lossless


 

[Цитировать]

Joseph Haydn - Die sieben letzten Worte unseres Erlösers am Kreuze - Cuarteto Casals
Жанр: Classical
Страна-производитель диска: France
Год издания диска: 2014
Издатель (лейбл): Harmonia Mundi
Номер по каталогу: HMC902162
Дата записи: 2012
Аудиокодек: FLAC
Тип рипа: image+.cue
Битрейт аудио: lossless
Продолжительность: 60:14
Источник: собственный рип
Наличие сканов в содержимом раздачи: да
Треклист:
Joseph Haydn (1732-1809)
[1]-[9] Die sieben letzten Worte unseres Erlösers am Kreuze Hob.XX:02
Исполнители:
Cuarteto Casals
Abel Tomàs Realp 1st violin
Vera Martínez Mehner 2nd violin
Jonathan Brown viola
Arnau Tomàs Realp cello

Лог создания рипа

Exact Audio Copy V1.0 beta 3 from 29. August 2011
EAC extraction logfile from 25. October 2014, 23:51
Cuarteto Casals / Haydn - Die sieben letzten Worte
Used drive : HL-DT-STDVDRAM GU70N Adapter: 0 ID: 0
Read mode : Secure
Utilize accurate stream : Yes
Defeat audio cache : Yes
Make use of C2 pointers : No
Read offset correction : 48
Overread into Lead-In and Lead-Out : No
Fill up missing offset samples with silence : Yes
Delete leading and trailing silent blocks : No
Null samples used in CRC calculations : Yes
Used interface : Native Win32 interface for Win NT & 2000
Used output format : User Defined Encoder
Selected bitrate : 128 kBit/s
Quality : High
Add ID3 tag : No
Command line compressor : C:\Program Files (x86)\Exact Audio Copy\Flac\flac.exe
Additional command line options : -V -8 -T "Date=%year%" -T "Genre=%genre%" %source%
TOC of the extracted CD
Track | Start | Length | Start sector | End sector
---------------------------------------------------------
1 | 0:00.00 | 5:18.35 | 0 | 23884
2 | 5:18.35 | 5:48.50 | 23885 | 50034
3 | 11:07.10 | 8:21.40 | 50035 | 87649
4 | 19:28.50 | 9:24.01 | 87650 | 129950
5 | 28:52.51 | 6:38.42 | 129951 | 159842
6 | 35:31.18 | 8:46.25 | 159843 | 199317
7 | 44:17.43 | 7:39.01 | 199318 | 233743
8 | 51:56.44 | 6:30.11 | 233744 | 263004
9 | 58:26.55 | 1:45.49 | 263005 | 270928
Range status and errors
Selected range
Filename C:\temp\Haydn - Die sieben letzten Worte - Cuarteto Casals\Haydn - Die sieben letzten Worte.wav
Peak level 96.3 %
Extraction speed 5.2 X
Range quality 100.0 %
Test CRC 8D97A812
Copy CRC 8D97A812
Copy OK
No errors occurred
AccurateRip summary
Track 1 accurately ripped (confidence 2) [CA32956C] (AR v2)
Track 2 accurately ripped (confidence 2) [E7985909] (AR v2)
Track 3 accurately ripped (confidence 2) [2C374ECB] (AR v2)
Track 4 accurately ripped (confidence 2) [48C74190] (AR v2)
Track 5 accurately ripped (confidence 2) [392FC882] (AR v2)
Track 6 accurately ripped (confidence 2) [C86E25F3] (AR v2)
Track 7 accurately ripped (confidence 2) [F1FEBFC7] (AR v2)
Track 8 accurately ripped (confidence 2) [63A1F812] (AR v2)
Track 9 accurately ripped (confidence 2) [5DADD17E] (AR v2)
All tracks accurately ripped
End of status report
==== Log checksum 771DE11D324478B7234F1DCF26DDA91DD452F14F00F4EF0167DA18EA6027E9D4 ====



Показать сообщения:    

Текущее время: 08-Дек 17:23

Часовой пояс: UTC + 3


Вы не можете начинать темы
Вы не можете отвечать на сообщения
Вы не можете редактировать свои сообщения
Вы не можете удалять свои сообщения
Вы не можете голосовать в опросах
Вы не можете прикреплять файлы к сообщениям
Вы не можете скачивать файлы