(Classical) Georg Philipp Telemann - Klingende Geographie - Musica Fiorita, Daniela Dolci - 2013, FLAC (image+.cue) lossless


 

[Цитировать]

Georg Philipp Telemann - Klingende Geographie - Musica Fiorita, Daniela Dolci
Жанр: Classical
Год издания диска: 2013
Издатель (лейбл): PanClassics
Номер по каталогу: PC 10291
Дата записи: 2011
Аудиокодек: FLAC
Тип рипа: image+.cue
Битрейт аудио: lossless
Продолжительность: 70:15
Источник: собственный рип
Наличие сканов в содержимом раздачи: да
Треклист:
Georg Philipp Telemann (1681-1767)
[1]-[38] Klingende Geographie
(zusammengestellt & herausgegeben von Adolf Hoffmann, 1959)
[39]-[42] Concerto in D minor
für zwei Violinen, Viola & Basso continuo
Исполнители:
Musica Fiorita
Daniela Dolci
harpsichord & direction

Лог создания рипа

Exact Audio Copy V1.0 beta 3 from 29. August 2011
EAC extraction logfile from 24. October 2014, 23:45
Musica Fiorita, Daniela Dolci / Telemann - Klingende Geographie
Used drive : HL-DT-STDVDRAM GU70N Adapter: 0 ID: 0
Read mode : Secure
Utilize accurate stream : Yes
Defeat audio cache : Yes
Make use of C2 pointers : No
Read offset correction : 48
Overread into Lead-In and Lead-Out : No
Fill up missing offset samples with silence : Yes
Delete leading and trailing silent blocks : No
Null samples used in CRC calculations : Yes
Used interface : Native Win32 interface for Win NT & 2000
Used output format : User Defined Encoder
Selected bitrate : 128 kBit/s
Quality : High
Add ID3 tag : No
Command line compressor : C:\Program Files (x86)\Exact Audio Copy\Flac\flac.exe
Additional command line options : -V -8 -T "Date=%year%" -T "Genre=%genre%" %source%
TOC of the extracted CD
Track | Start | Length | Start sector | End sector
---------------------------------------------------------
1 | 0:00.00 | 3:40.13 | 0 | 16512
2 | 3:40.13 | 0:35.01 | 16513 | 19138
3 | 4:15.14 | 1:51.09 | 19139 | 27472
4 | 6:06.23 | 2:09.39 | 27473 | 37186
5 | 8:15.62 | 1:52.12 | 37187 | 45598
6 | 10:07.74 | 0:58.01 | 45599 | 49949
7 | 11:06.00 | 1:28.28 | 49950 | 56577
8 | 12:34.28 | 1:36.28 | 56578 | 63805
9 | 14:10.56 | 2:42.25 | 63806 | 75980
10 | 16:53.06 | 0:40.69 | 75981 | 79049
11 | 17:34.00 | 0:54.15 | 79050 | 83114
12 | 18:28.15 | 1:11.16 | 83115 | 88455
13 | 19:39.31 | 1:06.19 | 88456 | 93424
14 | 20:45.50 | 2:29.16 | 93425 | 104615
15 | 23:14.66 | 0:33.57 | 104616 | 107147
16 | 23:48.48 | 2:37.45 | 107148 | 118967
17 | 26:26.18 | 1:47.42 | 118968 | 127034
18 | 28:13.60 | 0:52.06 | 127035 | 130940
19 | 29:05.66 | 1:13.69 | 130941 | 136484
20 | 30:19.60 | 1:23.60 | 136485 | 142769
21 | 31:43.45 | 0:42.02 | 142770 | 145921
22 | 32:25.47 | 2:23.17 | 145922 | 156663
23 | 34:48.64 | 0:50.20 | 156664 | 160433
24 | 35:39.09 | 1:09.39 | 160434 | 165647
25 | 36:48.48 | 0:55.11 | 165648 | 169783
26 | 37:43.59 | 2:22.15 | 169784 | 180448
27 | 40:05.74 | 1:18.16 | 180449 | 186314
28 | 41:24.15 | 2:26.49 | 186315 | 197313
29 | 43:50.64 | 3:03.33 | 197314 | 211071
30 | 46:54.22 | 1:17.35 | 211072 | 216881
31 | 48:11.57 | 1:17.16 | 216882 | 222672
32 | 49:28.73 | 1:07.60 | 222673 | 227757
33 | 50:36.58 | 1:56.63 | 227758 | 236520
34 | 52:33.46 | 0:50.42 | 236521 | 240312
35 | 53:24.13 | 1:06.32 | 240313 | 245294
36 | 54:30.45 | 1:23.54 | 245295 | 251573
37 | 55:54.24 | 2:25.27 | 251574 | 262475
38 | 58:19.51 | 1:13.63 | 262476 | 268013
39 | 59:33.39 | 2:52.67 | 268014 | 280980
40 | 62:26.31 | 2:41.73 | 280981 | 293128
41 | 65:08.29 | 2:28.59 | 293129 | 304287
42 | 67:37.13 | 2:36.44 | 304288 | 316031
Range status and errors
Selected range
Filename C:\temp\Telemann - Klingende Geographie\Telemann - Klingende Geographie.wav
Peak level 100.0 %
Extraction speed 2.1 X
Range quality 99.9 %
Test CRC 951F51EE
Copy CRC 951F51EE
Copy OK
No errors occurred
AccurateRip summary
Track 1 accurately ripped (confidence 1) [9C7EFEAB] (AR v2)
Track 2 accurately ripped (confidence 1) [12BC3455] (AR v2)
Track 3 accurately ripped (confidence 1) [D7E34D5F] (AR v2)
Track 4 accurately ripped (confidence 1) [87AAEBE3] (AR v2)
Track 5 accurately ripped (confidence 1) [9295CFE2] (AR v2)
Track 6 accurately ripped (confidence 1) [E524E765] (AR v2)
Track 7 accurately ripped (confidence 1) [3A62D80E] (AR v2)
Track 8 accurately ripped (confidence 1) [29D68BD1] (AR v2)
Track 9 accurately ripped (confidence 1) [D57A2BD1] (AR v2)
Track 10 accurately ripped (confidence 1) [D4017846] (AR v2)
Track 11 accurately ripped (confidence 1) [CFBC0AFD] (AR v2)
Track 12 accurately ripped (confidence 1) [E5B778A1] (AR v2)
Track 13 accurately ripped (confidence 1) [B4DF154D] (AR v2)
Track 14 accurately ripped (confidence 1) [59E7BE16] (AR v2)
Track 15 accurately ripped (confidence 1) [4D1A28F2] (AR v2)
Track 16 accurately ripped (confidence 1) [818A8700] (AR v2)
Track 17 accurately ripped (confidence 1) [E2B80B08] (AR v2)
Track 18 accurately ripped (confidence 1) [B229E5A4] (AR v2)
Track 19 accurately ripped (confidence 1) [D3BD0ECF] (AR v2)
Track 20 accurately ripped (confidence 1) [62D2F165] (AR v2)
Track 21 accurately ripped (confidence 1) [F92B02CA] (AR v2)
Track 22 accurately ripped (confidence 1) [920D51B4] (AR v2)
Track 23 accurately ripped (confidence 1) [4A36178A] (AR v2)
Track 24 accurately ripped (confidence 1) [B520736E] (AR v2)
Track 25 accurately ripped (confidence 1) [EEB9574A] (AR v2)
Track 26 accurately ripped (confidence 1) [1FB43632] (AR v2)
Track 27 accurately ripped (confidence 1) [AFBF107B] (AR v2)
Track 28 accurately ripped (confidence 1) [B437FB54] (AR v2)
Track 29 accurately ripped (confidence 1) [1B38A88F] (AR v2)
Track 30 accurately ripped (confidence 1) [5CD5E657] (AR v2)
Track 31 accurately ripped (confidence 1) [59AD2F43] (AR v2)
Track 32 accurately ripped (confidence 1) [EB54E3AB] (AR v2)
Track 33 accurately ripped (confidence 1) [509164A2] (AR v2)
Track 34 accurately ripped (confidence 1) [E053CE21] (AR v2)
Track 35 accurately ripped (confidence 1) [C22FA47E] (AR v2)
Track 36 accurately ripped (confidence 1) [E6B83685] (AR v2)
Track 37 accurately ripped (confidence 1) [D6FA3C4F] (AR v2)
Track 38 accurately ripped (confidence 1) [EEA2DB59] (AR v2)
Track 39 accurately ripped (confidence 1) [FD1D1D01] (AR v2)
Track 40 accurately ripped (confidence 1) [FA682C2B] (AR v2)
Track 41 accurately ripped (confidence 1) [8CD42895] (AR v2)
Track 42 accurately ripped (confidence 1) [05DC4119] (AR v2)
All tracks accurately ripped
End of status report
==== Log checksum 5F1963777355289410719EF9AFEBB6E12F9EDE7CBD2842C80C68BC430B87C615 ====



Показать сообщения:    

Текущее время: 04-Дек 13:15

Часовой пояс: UTC + 3


Вы не можете начинать темы
Вы не можете отвечать на сообщения
Вы не можете редактировать свои сообщения
Вы не можете удалять свои сообщения
Вы не можете голосовать в опросах
Вы не можете прикреплять файлы к сообщениям
Вы не можете скачивать файлы