Отец. Сын. Однажды в Голливуде / A Father. A Son. Once Upon a Time in Hollywood (Ли Грант / Lee Grant) [2004, документальный, кинематограф, DVB] DVO (NOVAMEDIA)


Статистика раздачи [Обновить пиров]
Размер:  2.42 GB   |    Зарегистрирован:  8 месяцев 20 дней   |    Скачан:  0 раз

Полного источника не было: Никогда

Личеров:  124  [  0 KB/s  ]   Подробная статистика пиров
 
   
 
 
 

[Цитировать]

Отец… Сын… Однажды в Голливуде
…A Father …A Son. Once Upon a Time in Hollywood- Дата/Год выпуска: 2004
Страна: США
Жанр: документальный, кинематограф
Продолжительность: 01:33:06
Перевод: Профессиональный (двухголосый закадровый)
Доп. инфо о переводе: Студия NOVAMEDIA по заказу компании Amedia TV
Русские субтитры: нет
Режиссер: Ли Грант / Lee Grant
Телеканал: Amedia 1Описание: Обладательница премий "Оскар" за роль в фильме "Шампунь" (1975) и документальный фильм "В Америке и за её пределами" (1986) актриса и режиссер Ли Грант расскажет в своей ленте о двух известных голливудских актерах, с которыми ей довелось встречаться на съемочной площадке – об отце и сыне Дугласах: Кирке и Майкле.
"Ли Грант сыграла небольшую роль - воровки в "Детективной истории", и была номинирована на "Оскара". Она прекрасная девушка. Спустя годы она снимет семейное кино о нас с Майклом, обо всей нашей шайке-лейке". (Кирк Дуглас)
Доп. информация: DVB-S

качество: DVB
формат: MKV
Видео: MPEG Video 2, 720x576@1024x576 (16:9), 25 fps, ~3449 kbps avg, 0.333 bit/pixel
Аудио: MPEG Audio 2, 2 ch, 48 kHz, ~192.00 kbps avg

MediaInfo

Общее
Уникальный идентификатор : 226558522385841139278491248458922078495 (0xAA719590E094E815A8ED1537DAFA311F)
Полное имя : E:\My Torrents 2\[apreder]A_Father_A_Son_Once_Upon_a_Time_in_Hollywood(2004)DVB.mkv
Формат : Matroska
Версия формата : Version 2
Размер файла : 2,42 Гбайт
Продолжительность : 1 ч. 33 м.
Режим общего битрейта : Переменный
Общий поток : 3715 Кбит/сек
Дата кодирования : UTC 2014-11-01 17:09:06
Программа кодирования : mkvmerge v7.3.0 ('Nouages') 64bit built on Oct 22 2014 18:53:34
Библиотека кодирования : libebml v1.3.0 + libmatroska v1.4.1
Видео
Идентификатор : 1
Формат : MPEG Video
Версия формата : Version 2
Профиль формата : Main@Main
Параметр BVOP формата : Нет
Параметр матрицы формата : Выборочная
Format_Settings_PictureStructure : Frame
Идентификатор кодека : V_MPEG2
Идентификатор кодека/Информация : MPEG 1 or 2 Video
Продолжительность : 1 ч. 33 м.
Вид битрейта : Переменный
Битрейт : 3449 Кбит/сек
Максимальный битрейт : 7385 Кбит/сек
Ширина : 720 пикселей
Высота : 576 пикселей
Соотношение сторон : 16:9
Режим частоты кадров : Постоянный
Частота кадров : 25,000 кадров/сек
Стандарт вещания : PAL
Цветовое пространство : YUV
Субдискретизация насыщенности : 4:2:0
Битовая глубина : 8 бит
Тип развёртки : Чересстрочная
Порядок развёртки : Верхнее поле первое
Метод сжатия : С потерями
Бит/(Пиксели*Кадры) : 0.333
Временной код первого кадра : 00:00:00:00
Оригинал временного кода : Group of pictures header
Размер потока : 2,24 Гбайт (93%)
Default : Да
Forced : Нет
Аудио
Идентификатор : 2
Формат : MPEG Audio
Версия формата : Version 1
Профиль формата : Layer 2
Идентификатор кодека : A_MPEG/L2
Идентификатор кодека/Подсказка : MP2
Продолжительность : 1 ч. 33 м.
Вид битрейта : Постоянный
Битрейт : 192 Кбит/сек
Каналы : 2 канала
Частота : 48,0 КГц
Метод сжатия : С потерями
Размер потока : 128 Мбайт (5%)
Язык : Russian
Default : Да
Forced : Нет

Скриншоты


Резервные скриншоты


-[1'869]
[teatrix.ru].t19364.torrent 
Торрент: Зарегистрирован [ 2016-03-18 12:48 ] · 490C09600E3099605005C772211E23FC13DA547C

Скачать .torrent

Скачать

13 KB

Статус: проверено
Скачан: 0 раз
Размер: 2.42 GB
terms.php



Показать сообщения:    

Текущее время: 08-Дек 11:01

Часовой пояс: UTC + 3


Вы не можете начинать темы
Вы не можете отвечать на сообщения
Вы не можете редактировать свои сообщения
Вы не можете удалять свои сообщения
Вы не можете голосовать в опросах
Вы не можете прикреплять файлы к сообщениям
Вы можете скачивать файлы