Страницы театральной пародии (Александр Глобин) [1996, комедия, DVB]


 

[Цитировать]

Страницы театральной пародии (5 серий)
Жанр: комедия
Год выпуска: 1996
Продолжительность: 00:47:19 + 00:37:02 + 00:50:54 + 00:45:27 + 00:40:44
Режиссёр: Александр Глобин
В ролях: Любовь Полищук, Николай Трофимов, Лев Дуров, Юрий Васильев (II), Семён Фурман, Евгений Александров, Наталья Фатеева, Александр Пожаров, Юрий Гальцев, Владимир Смилянец, Алексей Якубов, Вероника (Ника) Козоровицкая, Расми (Рамзес) Джабраилов, Иван Глобин, Светлана Спиридонова, Руслан Музафаров, Светлана Кифа, Александр Леньков, Вадим Карев, Алексей Макаров, Леонид Сергеев, Константин Юшкевич, Михаил Трясоруков, Леонид Тимцуник, Дарья Белоусова, Наталья Коренная, Юлия Цибульникова, Ирина Линдт, Дмитрий Шаблинский, Елена Стефанко, Сергей Спиридонов (II), Андрей Семёнов (III)
Описание: Театральные пародии по пьесам конца 19 — начала 20 века:
* «Гастроль Рычалова»по Н. Урванцеву (50 мин.);
* «ЖанНуар и Анри Заверни, или Пропавший документ» по Н. Урванцеву (40 мин.);
* «Графиня Эльвира» по пьесе Е. Мировича (50 мин.);
* «Вампука — принцесса Африканская» по пьесам Н. Евреинова «Школа Этуалей» (50 мин.) и М. Волконского «Принцесса африканская» (50 мин.);
* «Театр купца Епишкина» (40 мин.).
Доп. информация:
Запись потока *.ts со спутника EUTELSAT 36A/B, 36° в.д., ремукс в *.mpg программой VideoReDo.
Качество видео: DVB
Формат видео: MPEG-PS
Видео: MPEG Video, 720(768)x576 (4:3), 25,000 кадров/сек, 2610 Кбит/сек
Аудио: MPEG Audio, 48,0 КГц, 192 Кбит/сек, 2 канала

MediaInfo

Общее
Полное имя : D:\Torrent\Страницы театральной пародии\СТРАНИЦЫ ТЕАТРАЛЬНОЙ ПАРОДИИ 1 (Россия К).mpg
Формат : MPEG-PS
Размер файла : 967 Мбайт
Продолжительность : 47 м.
Режим общего битрейта : Переменный
Общий поток : 2858 Кбит/сек
Видео
Идентификатор : 224 (0xE0)
Формат : MPEG Video
Версия формата : Version 2
Профиль формата : Main@Main
Параметр BVOP формата : Да
Параметр матрицы формата : Выборочная
Параметр GOP формата : Variable
Format_Settings_PictureStructure : Frame
Продолжительность : 47 м.
Вид битрейта : Переменный
Битрейт : 2610 Кбит/сек
Максимальный битрейт : 15,0 Мбит/сек
Ширина : 720 пикселей
Высота : 576 пикселей
Соотношение сторон : 4:3
Частота кадров : 25,000 кадров/сек
Стандарт вещания : PAL
Цветовое пространство : YUV
Субдискретизация насыщенности : 4:2:0
Битовая глубина : 8 бит
Тип развёртки : Чересстрочная
Порядок развёртки : Верхнее поле первое
Метод сжатия : С потерями
Бит/(Пиксели*Кадры) : 0.252
Временной код первого кадра : 00:00:00:00
Оригинал временного кода : Group of pictures header
Размер потока : 883 Мбайт (91%)
Аудио
Идентификатор : 192 (0xC0)
Формат : MPEG Audio
Версия формата : Version 1
Профиль формата : Layer 2
Продолжительность : 47 м.
Вид битрейта : Постоянный
Битрейт : 192 Кбит/сек
Каналы : 2 канала
Частота : 48,0 КГц
Метод сжатия : С потерями
Задержка видео : 4 мс.
Размер потока : 65,0 Мбайт (7%)
Общее
Полное имя : D:\Torrent\Страницы театральной пародии\СТРАНИЦЫ ТЕАТРАЛЬНОЙ ПАРОДИИ 2 (Россия К).mpg
Формат : MPEG-PS
Размер файла : 756 Мбайт
Продолжительность : 37 м.
Режим общего битрейта : Переменный
Общий поток : 2851 Кбит/сек
Видео
Идентификатор : 224 (0xE0)
Формат : MPEG Video
Версия формата : Version 2
Профиль формата : Main@Main
Параметр BVOP формата : Да
Параметр матрицы формата : Выборочная
Параметр GOP формата : Variable
Format_Settings_PictureStructure : Frame
Продолжительность : 37 м.
Вид битрейта : Переменный
Битрейт : 2602 Кбит/сек
Максимальный битрейт : 15,0 Мбит/сек
Ширина : 720 пикселей
Высота : 576 пикселей
Соотношение сторон : 4:3
Частота кадров : 25,000 кадров/сек
Стандарт вещания : PAL
Цветовое пространство : YUV
Субдискретизация насыщенности : 4:2:0
Битовая глубина : 8 бит
Тип развёртки : Чересстрочная
Порядок развёртки : Верхнее поле первое
Метод сжатия : С потерями
Бит/(Пиксели*Кадры) : 0.251
Временной код первого кадра : 00:00:00:00
Оригинал временного кода : Group of pictures header
Размер потока : 690 Мбайт (91%)
Аудио
Идентификатор : 192 (0xC0)
Формат : MPEG Audio
Версия формата : Version 1
Профиль формата : Layer 2
Продолжительность : 37 м.
Вид битрейта : Постоянный
Битрейт : 192 Кбит/сек
Каналы : 2 канала
Частота : 48,0 КГц
Метод сжатия : С потерями
Задержка видео : 20 мс.
Размер потока : 50,9 Мбайт (7%)
Общее
Полное имя : D:\Torrent\Страницы театральной пародии\СТРАНИЦЫ ТЕАТРАЛЬНОЙ ПАРОДИИ 3 (Россия К).mpg
Формат : MPEG-PS
Размер файла : 1,80 Гбайт
Продолжительность : 50 м.
Режим общего битрейта : Переменный
Общий поток : 5071 Кбит/сек
Видео
Идентификатор : 224 (0xE0)
Формат : MPEG Video
Версия формата : Version 2
Профиль формата : Main@Main
Параметр BVOP формата : Да
Параметр матрицы формата : Выборочная
Параметр GOP формата : Variable
Format_Settings_PictureStructure : Frame
Продолжительность : 50 м.
Вид битрейта : Переменный
Битрейт : 4778 Кбит/сек
Максимальный битрейт : 15,0 Мбит/сек
Ширина : 720 пикселей
Высота : 576 пикселей
Соотношение сторон : 4:3
Частота кадров : 25,000 кадров/сек
Стандарт вещания : PAL
Цветовое пространство : YUV
Субдискретизация насыщенности : 4:2:0
Битовая глубина : 8 бит
Тип развёртки : Чересстрочная
Порядок развёртки : Верхнее поле первое
Метод сжатия : С потерями
Бит/(Пиксели*Кадры) : 0.461
Временной код первого кадра : 00:00:00:00
Оригинал временного кода : Group of pictures header
Размер потока : 1,70 Гбайт (94%)
Аудио
Идентификатор : 192 (0xC0)
Формат : MPEG Audio
Версия формата : Version 1
Профиль формата : Layer 2
Продолжительность : 50 м.
Вид битрейта : Постоянный
Битрейт : 192 Кбит/сек
Каналы : 2 канала
Частота : 48,0 КГц
Метод сжатия : С потерями
Задержка видео : 6 мс.
Размер потока : 69,9 Мбайт (4%)
Общее
Полное имя : D:\Torrent\Страницы театральной пародии\СТРАНИЦЫ ТЕАТРАЛЬНОЙ ПАРОДИИ 4 (Россия К).mpg
Формат : MPEG-PS
Размер файла : 1,54 Гбайт
Продолжительность : 45 м.
Режим общего битрейта : Переменный
Общий поток : 4836 Кбит/сек
Видео
Идентификатор : 224 (0xE0)
Формат : MPEG Video
Версия формата : Version 2
Профиль формата : Main@Main
Параметр BVOP формата : Да
Параметр матрицы формата : Выборочная
Параметр GOP формата : M=3, N=36
Format_Settings_PictureStructure : Frame
Продолжительность : 45 м.
Вид битрейта : Переменный
Битрейт : 4548 Кбит/сек
Максимальный битрейт : 15,0 Мбит/сек
Ширина : 720 пикселей
Высота : 576 пикселей
Соотношение сторон : 4:3
Частота кадров : 25,000 кадров/сек
Стандарт вещания : PAL
Цветовое пространство : YUV
Субдискретизация насыщенности : 4:2:0
Битовая глубина : 8 бит
Тип развёртки : Чересстрочная
Порядок развёртки : Верхнее поле первое
Метод сжатия : С потерями
Бит/(Пиксели*Кадры) : 0.439
Временной код первого кадра : 00:00:00:00
Оригинал временного кода : Group of pictures header
Размер потока : 1,44 Гбайт (94%)
Аудио
Идентификатор : 192 (0xC0)
Формат : MPEG Audio
Версия формата : Version 1
Профиль формата : Layer 2
Продолжительность : 45 м.
Вид битрейта : Постоянный
Битрейт : 192 Кбит/сек
Каналы : 2 канала
Частота : 48,0 КГц
Метод сжатия : С потерями
Задержка видео : 12 мс.
Размер потока : 62,4 Мбайт (4%)
Общее
Полное имя : D:\Torrent\Страницы театральной пародии\СТРАНИЦЫ ТЕАТРАЛЬНОЙ ПАРОДИИ 5 (Россия К).mpg
Формат : MPEG-PS
Размер файла : 1,44 Гбайт
Продолжительность : 40 м.
Режим общего битрейта : Переменный
Общий поток : 5046 Кбит/сек
Видео
Идентификатор : 224 (0xE0)
Формат : MPEG Video
Версия формата : Version 2
Профиль формата : Main@Main
Параметр BVOP формата : Да
Параметр матрицы формата : Выборочная
Параметр GOP формата : M=3, N=36
Format_Settings_PictureStructure : Frame
Продолжительность : 40 м.
Вид битрейта : Переменный
Битрейт : 4754 Кбит/сек
Максимальный битрейт : 15,0 Мбит/сек
Ширина : 720 пикселей
Высота : 576 пикселей
Соотношение сторон : 4:3
Частота кадров : 25,000 кадров/сек
Стандарт вещания : PAL
Цветовое пространство : YUV
Субдискретизация насыщенности : 4:2:0
Битовая глубина : 8 бит
Тип развёртки : Чересстрочная
Порядок развёртки : Верхнее поле первое
Метод сжатия : С потерями
Бит/(Пиксели*Кадры) : 0.459
Временной код первого кадра : 00:00:00:00
Оригинал временного кода : Group of pictures header
Размер потока : 1,35 Гбайт (94%)
Аудио
Идентификатор : 192 (0xC0)
Формат : MPEG Audio
Версия формата : Version 1
Профиль формата : Layer 2
Продолжительность : 40 м.
Вид битрейта : Постоянный
Битрейт : 192 Кбит/сек
Каналы : 2 канала
Частота : 48,0 КГц
Метод сжатия : С потерями
Задержка видео : 12 мс.
Размер потока : 56,0 Мбайт (4%)

Скриншот с названием постановки




Показать сообщения:    

Текущее время: 04-Дек 00:54

Часовой пояс: UTC + 3


Вы не можете начинать темы
Вы не можете отвечать на сообщения
Вы не можете редактировать свои сообщения
Вы не можете удалять свои сообщения
Вы не можете голосовать в опросах
Вы не можете прикреплять файлы к сообщениям
Вы не можете скачивать файлы