Пробуждение Последствия Генезис / The Awakening Aftermath Genesis (Начо Серда / Nacho Cerda) [1990-1998, Испания, драма, ужасы, DVDRip-AVC]


Статистика раздачи [Обновить пиров]
Размер:  1.12 GB   |    Зарегистрирован:  8 месяцев 17 дней   |    Скачан:  0 раз

Полного источника не было: Никогда

Личеров:  110  [  0 KB/s  ]   Подробная статистика пиров
 
   
 
 
 

[Цитировать]

Пробуждение Последствия Генезис / The Awakening Aftermath Genesis
Страна: Испания
Жанр: драма, ужасы
Год выпуска: 1990, 1994, 1998
Продолжительность: 00:08:07; 00:31:52; 00:30:12
Перевод: Не требуется
Cубтитры: нет
Режиссер: Начо Серда / Nacho Cerda
В ролях: Xevi Collellmir, Trae Houlihan, Jordi Tarrida, Angel Tarris, Pep Tosar
О фильме: Испанец Начо Серда считается по праву гением короткометражного кино. За очень известную на Западе и в Азии трилогию «смерти и любви». С 1990 по 1998 год он снял всего 3 фильма, суммарная продолжительность которых всего 67 минут. Дело вовсе не в лени режиссера. На весьма скромном бюджете он вымучивал шедевры, гениальные по режиссуре, операторской работе, монтажу и техническим эффектам. Задумка режиссера заключалась в том, что в первом своем фильме – «Пробуждение» он остановиться на теме смерти, во второй «После смерти» - будет сочетание смерти и любви и заключительная – «Генезис» посвящена исключительно большой, чистой и красивой любви. Данный фильм, обычный зритель смотрящий на кино лишь поверхностно просто не поймет. Испанский драматический неохоррор из области полулюбительских малобюджеток. Жена скульптора погибает в автокатастрофе. Муж в отчаянии начинает лепить максимально реалистичную скульптуру жены, постепенно ему кажется, что скульптура начинает оживать, а он сам превращается в камень...
Доп. информация:
http://www.imdb.com/title/tt0165097/
http://www.imdb.com/title/tt0159241/
http://www.imdb.com/title/tt0165297/
Исходник:
http://teatrix.ru/viewtopic.php?t=1206131
Сэмпл:
http://rusfolder.com/42158742
http://rusfolder.com/42158796
http://rusfolder.com/42158797
Качество видео: DVDRip-AVC
Формат видео: MKV
Видео: x264, 712x480@712x540 (4:3), 23.976 fps, ~2400 kbps avg, 0.29 bit/pixel
Аудио: 48 kHz, AC3 Dolby Digital, 2/0 (L,R) ch, ~192 kbps avg
Видео: x264, 696x472@825x472 (16:9), 23.976 fps, ~1968 kbps avg, 0.25 bit/pixel
Аудио: 48 kHz, AC3 Dolby Digital, 3/2 (L,C,R,l,r) + LFE ch, ~448.00 kbps avg
Видео: x264, 688x336@814x336 (2,40:1), 23.976 fps, ~1630 kbps avg, 0.29 bit/pixel
Аудио: 48 kHz, AC3 Dolby Digital, 3/2 (L,C,R,l,r) + LFE ch, ~448.00 kbps avg

MediaInfoThe Awakening

Общее
Уникальный идентификатор : 241022524496576072653663866053960340597 (0xB5533FEDA5FAE9FBA78C87A3FBD31475)
Полное имя : E:\Фильмы\The.Awakening.Aftermath.Genesis.DVDRip-AVC\The_Awakening_1990.DVDRip-AVC.mkv
Формат : Matroska
Версия формата : Version 4 / Version 2
Размер файла : 150 Мбайт
Продолжительность : 8 м. 6 с.
Общий поток : 2588 Кбит/сек
Название фильма : The Awakening (Nacho Cerda, 1990) DVDRip-AVC
Дата кодирования : UTC 2014-10-27 05:59:23
Программа кодирования : mkvmerge v6.1.0 ('Old Devil') built on Mar 4 2013 09:10:42
Библиотека кодирования : libebml v1.3.0 + libmatroska v1.4.0
Видео
Идентификатор : 1
Формат : AVC
Формат/Информация : Advanced Video Codec
Профиль формата : High@L4.1
Параметр CABAC формата : Да
Параметр ReFrames формата : 16 кадров
Идентификатор кодека : V_MPEG4/ISO/AVC
Продолжительность : 8 м. 6 с.
Битрейт : 2400 Кбит/сек
Ширина : 712 пикселей
Высота : 480 пикселей
Соотношение сторон : 4:3
Режим частоты кадров : Постоянный
Частота кадров : 23,976 кадра/сек
Цветовое пространство : YUV
Субдискретизация насыщенности : 4:2:0
Битовая глубина : 8 бит
Тип развёртки : Прогрессивная
Бит/(Пиксели*Кадры) : 0.293
Размер потока : 136 Мбайт (91%)
Библиотека кодирования : x264 core 142 r2453 ea0ca51
Настройки программы : cabac=1 / ref=16 / deblock=1:-2:-2 / analyse=0x3:0x133 / me=umh / subme=10 / psy=1 / psy_rd=1.00:0.25 / mixed_ref=1 / me_range=32 / chroma_me=1 / trellis=2 / 8x8dct=1 / cqm=0 / deadzone=6,6 / fast_pskip=0 / chroma_qp_offset=-4 / threads=6 / lookahead_threads=1 / sliced_threads=0 / nr=0 / decimate=0 / interlaced=0 / bluray_compat=0 / constrained_intra=0 / bframes=11 / b_pyramid=2 / b_adapt=2 / b_bias=0 / direct=3 / weightb=1 / open_gop=0 / weightp=2 / keyint=240 / keyint_min=23 / scenecut=40 / intra_refresh=0 / rc=2pass / mbtree=0 / bitrate=2400 / ratetol=1.0 / qcomp=0.80 / qpmin=10 / qpmax=51 / qpstep=4 / cplxblur=20.0 / qblur=0.5 / ip_ratio=1.10 / pb_ratio=1.10 / aq=1:0.50
Default : Да
Forced : Нет
Аудио
Идентификатор : 2
Формат : AC-3
Формат/Информация : Audio Coding 3
Расширение режима : CM (complete main)
Параметр Endianness формата : Big
Идентификатор кодека : A_AC3
Продолжительность : 8 м. 6 с.
Вид битрейта : Постоянный
Битрейт : 192 Кбит/сек
Каналы : 2 канала
Расположение каналов : Front: L R
Частота : 48,0 КГц
Битовая глубина : 16 бит
Метод сжатия : С потерями
Размер потока : 11,1 Мбайт (7%)
Default : Да
Forced : Нет

Aftermath

Общее
Уникальный идентификатор : 181418404314818927321996062309619367828 (0x887BE9EA6CB4C260BB21BC7CB6C87F94)
Полное имя : E:\Фильмы\The.Awakening.Aftermath.Genesis.DVDRip-AVC\Aftermath_1994.DVDRip-AVC.mkv
Формат : Matroska
Версия формата : Version 4 / Version 2
Размер файла : 551 Мбайт
Продолжительность : 31 м.
Общий поток : 2416 Кбит/сек
Название фильма : Aftermath (Nacho Cerda, 1994) DVDRip-AVC
Дата кодирования : UTC 2014-10-27 05:53:48
Программа кодирования : mkvmerge v6.1.0 ('Old Devil') built on Mar 4 2013 09:10:42
Библиотека кодирования : libebml v1.3.0 + libmatroska v1.4.0
Видео
Идентификатор : 1
Формат : AVC
Формат/Информация : Advanced Video Codec
Профиль формата : High@L4.1
Параметр CABAC формата : Да
Параметр ReFrames формата : 16 кадров
Идентификатор кодека : V_MPEG4/ISO/AVC
Продолжительность : 31 м.
Битрейт : 1968 Кбит/сек
Ширина : 696 пикселей
Высота : 472 пикселя
Соотношение сторон : 16:9
Режим частоты кадров : Постоянный
Частота кадров : 23,976 кадра/сек
Цветовое пространство : YUV
Субдискретизация насыщенности : 4:2:0
Битовая глубина : 8 бит
Тип развёртки : Прогрессивная
Бит/(Пиксели*Кадры) : 0.250
Размер потока : 438 Мбайт (79%)
Библиотека кодирования : x264 core 142 r2453 ea0ca51
Настройки программы : cabac=1 / ref=16 / deblock=1:-2:-1 / analyse=0x3:0x133 / me=umh / subme=10 / psy=1 / psy_rd=1.00:0.20 / mixed_ref=1 / me_range=32 / chroma_me=1 / trellis=2 / 8x8dct=1 / cqm=0 / deadzone=21,11 / fast_pskip=0 / chroma_qp_offset=-3 / threads=6 / lookahead_threads=1 / sliced_threads=0 / nr=0 / decimate=0 / interlaced=0 / bluray_compat=0 / constrained_intra=0 / bframes=16 / b_pyramid=2 / b_adapt=2 / b_bias=0 / direct=3 / weightb=1 / open_gop=0 / weightp=2 / keyint=240 / keyint_min=23 / scenecut=40 / intra_refresh=0 / rc=2pass / mbtree=0 / bitrate=1968 / ratetol=1.0 / qcomp=0.70 / qpmin=10 / qpmax=51 / qpstep=4 / cplxblur=20.0 / qblur=0.5 / ip_ratio=1.40 / pb_ratio=1.30 / aq=1:0.80
Default : Да
Forced : Нет
Аудио
Идентификатор : 2
Формат : AC-3
Формат/Информация : Audio Coding 3
Расширение режима : CM (complete main)
Параметр Endianness формата : Big
Идентификатор кодека : A_AC3
Продолжительность : 31 м.
Вид битрейта : Постоянный
Битрейт : 448 Кбит/сек
Каналы : 6 каналов
Расположение каналов : Front: L C R, Side: L R, LFE
Частота : 48,0 КГц
Битовая глубина : 16 бит
Метод сжатия : С потерями
Размер потока : 102 Мбайт (19%)
Default : Да
Forced : Нет

Genesis

Общее
Уникальный идентификатор : 195618347737582827876782951975804735436 (0x932AB92DFC58F060AF98A71021180FCC)
Полное имя : E:\Фильмы\The.Awakening.Aftermath.Genesis.DVDRip-AVC\Genesis_1998.DVDRip-AVC.mkv
Формат : Matroska
Версия формата : Version 4 / Version 2
Размер файла : 449 Мбайт
Продолжительность : 30 м.
Общий поток : 2078 Кбит/сек
Название фильма : Genesis (Nacho Cerda, 1998) DVDRip-AVC
Дата кодирования : UTC 2014-10-27 05:56:44
Программа кодирования : mkvmerge v6.1.0 ('Old Devil') built on Mar 4 2013 09:10:42
Библиотека кодирования : libebml v1.3.0 + libmatroska v1.4.0
Видео
Идентификатор : 1
Формат : AVC
Формат/Информация : Advanced Video Codec
Профиль формата : High@L4.1
Параметр CABAC формата : Да
Параметр ReFrames формата : 11 кадров
Идентификатор кодека : V_MPEG4/ISO/AVC
Продолжительность : 30 м.
Битрейт : 1630 Кбит/сек
Ширина : 688 пикселей
Высота : 336 пикселей
Соотношение сторон : 2,40:1
Соотношение сторон в оригинале : 2,40:1
Режим частоты кадров : Постоянный
Частота кадров : 23,976 кадра/сек
Цветовое пространство : YUV
Субдискретизация насыщенности : 4:2:0
Битовая глубина : 8 бит
Тип развёртки : Прогрессивная
Бит/(Пиксели*Кадры) : 0.294
Размер потока : 343 Мбайт (76%)
Библиотека кодирования : x264 core 142 r2453 ea0ca51
Настройки программы : cabac=1 / ref=11 / deblock=1:-1:-1 / analyse=0x3:0x133 / me=umh / subme=10 / psy=1 / psy_rd=1.00:0.15 / mixed_ref=1 / me_range=32 / chroma_me=1 / trellis=2 / 8x8dct=1 / cqm=0 / deadzone=21,11 / fast_pskip=0 / chroma_qp_offset=-3 / threads=6 / lookahead_threads=1 / sliced_threads=0 / nr=0 / decimate=0 / interlaced=0 / bluray_compat=0 / constrained_intra=0 / bframes=8 / b_pyramid=2 / b_adapt=2 / b_bias=0 / direct=3 / weightb=1 / open_gop=0 / weightp=2 / keyint=240 / keyint_min=23 / scenecut=40 / intra_refresh=0 / rc=2pass / mbtree=0 / bitrate=1630 / ratetol=1.0 / qcomp=0.60 / qpmin=10 / qpmax=51 / qpstep=4 / cplxblur=20.0 / qblur=0.5 / ip_ratio=1.40 / pb_ratio=1.30 / aq=1:0.70
Default : Да
Forced : Нет
Аудио
Идентификатор : 2
Формат : AC-3
Формат/Информация : Audio Coding 3
Расширение режима : CM (complete main)
Параметр Endianness формата : Big
Идентификатор кодека : A_AC3
Продолжительность : 30 м.
Вид битрейта : Постоянный
Битрейт : 448 Кбит/сек
Каналы : 6 каналов
Расположение каналов : Front: L C R, Side: L R, LFE
Частота : 48,0 КГц
Битовая глубина : 16 бит
Метод сжатия : С потерями
Размер потока : 96,8 Мбайт (22%)
Default : Да
Forced : Нет

x264The Awakening

x264 [info]: frame I:83 Avg QP:19.00 size: 28662
x264 [info]: frame P:2256 Avg QP:19.29 size: 16790
x264 [info]: frame B:9329 Avg QP:20.71 size: 11296
x264 [info]: consecutive B-frames: 1.3% 0.6% 3.1% 19.5% 20.3% 34.8% 11.5% 5.4% 1.9% 1.4% 0.3% 0.0%
x264 [info]: mb I I16..4: 7.8% 77.3% 14.9%
x264 [info]: mb P I16..4: 1.1% 16.2% 2.0% P16..4: 33.3% 17.8% 13.4% 0.5% 0.2% skip:15.5%
x264 [info]: mb B I16..4: 0.0% 2.8% 0.3% B16..8: 28.0% 13.8% 4.7% direct:17.1% skip:33.2% L0:39.7% L1:36.5% BI:23.8%
x264 [info]: 8x8 transform intra:85.2% inter:47.2%
x264 [info]: direct mvs spatial:94.4% temporal:5.6%
x264 [info]: coded y,uvDC,uvAC intra: 92.3% 21.0% 1.5% inter: 44.4% 8.8% 0.5%
x264 [info]: i16 v,h,dc,p: 48% 20% 14% 18%
x264 [info]: i8 v,h,dc,ddl,ddr,vr,hd,vl,hu: 12% 10% 11% 8% 12% 11% 11% 10% 14%
x264 [info]: i4 v,h,dc,ddl,ddr,vr,hd,vl,hu: 12% 18% 4% 7% 12% 12% 12% 10% 12%
x264 [info]: i8c dc,h,v,p: 59% 29% 10% 1%
x264 [info]: Weighted P-Frames: Y:30.7% UV:4.3%
x264 [info]: ref P L0: 38.6% 8.6% 15.3% 8.1% 6.4% 5.1% 4.3% 2.6% 2.3% 1.9% 1.7% 1.4% 1.2% 1.1% 0.9% 0.5%
x264 [info]: ref B L0: 71.0% 11.9% 5.3% 2.9% 2.1% 1.6% 1.3% 0.8% 0.7% 0.6% 0.5% 0.4% 0.4% 0.2% 0.1%
x264 [info]: ref B L1: 93.1% 6.9%

Aftermath

x264 [info]: frame I:251 Avg QP:15.45 size: 42574
x264 [info]: frame P:9045 Avg QP:17.44 size: 19833
x264 [info]: frame B:36550 Avg QP:19.31 size: 7658
x264 [info]: consecutive B-frames: 1.4% 2.0% 5.3% 16.4% 17.4% 36.4% 8.0% 4.7% 2.1% 1.0% 0.5% 0.6% 0.5% 0.7% 0.7% 0.5% 1.8%
x264 [info]: mb I I16..4: 28.2% 51.1% 20.7%
x264 [info]: mb P I16..4: 2.9% 17.9% 2.9% P16..4: 28.7% 20.3% 12.8% 0.5% 0.1% skip:13.9%
x264 [info]: mb B I16..4: 0.2% 1.7% 0.2% B16..8: 31.8% 10.5% 2.8% direct:13.1% skip:39.7% L0:42.6% L1:39.8% BI:17.6%
x264 [info]: 8x8 transform intra:75.2% inter:47.0%
x264 [info]: direct mvs spatial:97.8% temporal:2.2%
x264 [info]: coded y,uvDC,uvAC intra: 90.5% 68.1% 43.9% inter: 36.4% 22.4% 5.4%
x264 [info]: i16 v,h,dc,p: 32% 12% 26% 31%
x264 [info]: i8 v,h,dc,ddl,ddr,vr,hd,vl,hu: 14% 11% 14% 9% 10% 11% 9% 11% 11%
x264 [info]: i4 v,h,dc,ddl,ddr,vr,hd,vl,hu: 15% 11% 6% 9% 13% 13% 10% 12% 10%
x264 [info]: i8c dc,h,v,p: 40% 28% 18% 13%
x264 [info]: Weighted P-Frames: Y:14.8% UV:7.5%
x264 [info]: ref P L0: 39.0% 9.6% 16.7% 8.3% 6.1% 4.6% 3.8% 2.4% 2.0% 1.7% 1.5% 1.3% 1.1% 0.9% 0.7% 0.5%
x264 [info]: ref B L0: 67.7% 14.8% 5.6% 3.0% 2.1% 1.7% 1.4% 0.8% 0.7% 0.6% 0.5% 0.4% 0.4% 0.2% 0.1%
x264 [info]: ref B L1: 93.3% 6.7%

Genesis

x264 [info]: frame I:264 Avg QP:13.48 size: 36887
x264 [info]: frame P:8850 Avg QP:15.34 size: 17800
x264 [info]: frame B:34332 Avg QP:16.88 size: 5874
x264 [info]: consecutive B-frames: 1.5% 2.2% 7.0% 18.1% 16.4% 30.5% 9.2% 8.0% 7.0%
x264 [info]: mb I I16..4: 23.7% 54.7% 21.6%
x264 [info]: mb P I16..4: 2.3% 19.5% 3.1% P16..4: 23.0% 19.1% 16.3% 1.5% 0.8% skip:14.6%
x264 [info]: mb B I16..4: 0.1% 2.5% 0.2% B16..8: 27.3% 12.4% 4.1% direct:11.9% skip:41.3% L0:40.7% L1:36.2% BI:23.1%
x264 [info]: 8x8 transform intra:79.1% inter:41.6%
x264 [info]: direct mvs spatial:97.0% temporal:3.0%
x264 [info]: coded y,uvDC,uvAC intra: 90.1% 75.0% 57.6% inter: 33.6% 25.6% 8.3%
x264 [info]: i16 v,h,dc,p: 30% 5% 31% 34%
x264 [info]: i8 v,h,dc,ddl,ddr,vr,hd,vl,hu: 15% 9% 26% 6% 8% 9% 7% 9% 10%
x264 [info]: i4 v,h,dc,ddl,ddr,vr,hd,vl,hu: 13% 7% 7% 9% 14% 15% 11% 12% 11%
x264 [info]: i8c dc,h,v,p: 52% 20% 18% 11%
x264 [info]: Weighted P-Frames: Y:20.0% UV:8.7%
x264 [info]: ref P L0: 44.8% 12.6% 16.6% 7.9% 5.5% 4.0% 3.1% 1.9% 1.5% 1.2% 0.9% 0.1% 0.0%
x264 [info]: ref B L0: 67.7% 17.0% 6.1% 3.1% 2.1% 1.6% 1.2% 0.7% 0.4% 0.1%
x264 [info]: ref B L1: 93.1% 6.9%

СкриншотыThe Awakening

Aftermath

Genesis

[teatrix.ru].t19366.torrent 
Торрент: Зарегистрирован [ 2016-03-18 12:48 ] · A14BBE0C6C855898693D1EBDE03AF9DE7B91A256

Скачать .torrent

Скачать

12 KB

Статус: проверено
Скачан: 0 раз
Размер: 1.12 GB
terms.php



Быстрый ответ

Имя:

      
Для отправки сообщений необходимо включить JavaScript
Показать сообщения:    

Текущее время: 05-Дек 05:31

Часовой пояс: UTC + 3


Вы можете начинать темы
Вы можете отвечать на сообщения
Вы не можете редактировать свои сообщения
Вы не можете удалять свои сообщения
Вы не можете голосовать в опросах
Вы не можете прикреплять файлы к сообщениям
Вы можете скачивать файлы