Бесконечность - не предел. Как появилась "История игрушек" / To Infinity and Beyond. The making of Toy Story. (Майк Бонифер / Mike Bonifer ) [1995, документальный, короткометражка, мультфильм, DVB-AVC]


Статистика раздачи [Обновить пиров]
Размер:  514 MB   |    Зарегистрирован:  8 месяцев 18 дней   |    Скачан:  0 раз

Полного источника не было: Никогда

Личеров:  96  [  0 KB/s  ]   Подробная статистика пиров
 
   
 
 
 

[Цитировать]

Бесконечность - не предел. Как появилась "История игрушек" / To Infinity and Beyond. The making of Toy Story
Год выпуска: 1995
Страна: США
Жанр: документальный, короткометражка, мультфильм
Продолжительность: 00:28:03
Перевод: Профессиональный (многоголосый закадровый)
Русские субтитры: нет
Режиссёр: Майк Бонифер / Mike Bonifer
Описание: добро пожаловать за кулисы волшебного мира, где создаются анимационные фильмы Disney/Pixar! Увлекательный фильм, в название которого вынесена любимая фраза легендарного космического рейнджера Базза Лайтера, раскроет некоторые секреты создания историй о самых известных игрушках в мире. Фильм состоит из эксклюзивных видеоматериалов, интересных интервью с авторами проекта, а также отрывков анимационной трилогии "История игрушек ...
Доп. информация: Запись (захват) спутниковой трансляции канала "Дисней".

Релиз группы:
Семпл: https://yadi.sk/i/E0EAmg0RcSrKG
Качество видео: DVB
Формат видео: MPEG-TS
Видео: MPEG4 Video (H264), 720x576@785x576 (4:3), анаморф, 25 fps, 2200 kbps
Аудио: MPEG Audio, 2 сh, 48 kHz, 192 kbps

MediaInfo

General
ID : 1 (0x1)
Complete name : D:\Бесконечность не предел. Как появилась История игрушек. (1995)_DVB by SLuMeP.ts
Format : MPEG-TS
File size : 514 MiB
Duration : 28mn 3s
Overall bit rate mode : Variable
Overall bit rate : 2 563 Kbps
Video
ID : 38 (0x26)
Menu ID : 1 (0x1)
Format : AVC
Format/Info : Advanced Video Codec
Format profile : Main@L3.0
Format settings, CABAC : Yes
Format settings, ReFrames : 4 frames
Codec ID : 27
Duration : 28mn 3s
Bit rate : 2 242 Kbps
Width : 720 pixels
Height : 576 pixels
Display aspect ratio : 4:3
Frame rate : 25.000 fps
Standard : PAL
Color space : YUV
Chroma subsampling : 4:2:0
Bit depth : 8 bits
Scan type : Interlaced
Bits/(Pixel*Frame) : 0.216
Stream size : 450 MiB (87%)
Color primaries : BT.601 PAL
Transfer characteristics : BT.470 System B, BT.470 System G
Matrix coefficients : BT.601
Audio
ID : 37 (0x25)
Menu ID : 1 (0x1)
Format : MPEG Audio
Format version : Version 1
Format profile : Layer 2
Codec ID : 3
Duration : 28mn 3s
Bit rate mode : Constant
Bit rate : 192 Kbps
Channel(s) : 2 channels
Sampling rate : 48.0 KHz
Compression mode : Lossy
Delay relative to video : -40ms
Stream size : 38.5 MiB (7%)
Language : English
[teatrix.ru].t19367.torrent 
Торрент: Зарегистрирован [ 2016-03-18 12:48 ] · D8E63284CD6C84000744C3FAE5C6A663F2552166

Скачать .torrent

Скачать

11 KB

Статус: проверено
Скачан: 0 раз
Размер: 514 MB
terms.php



Показать сообщения:    

Текущее время: 05-Дек 13:27

Часовой пояс: UTC + 3


Вы не можете начинать темы
Вы не можете отвечать на сообщения
Вы не можете редактировать свои сообщения
Вы не можете удалять свои сообщения
Вы не можете голосовать в опросах
Вы не можете прикреплять файлы к сообщениям
Вы можете скачивать файлы