Оскар. История Голливуда / And the Oscar Goes To (Роб Эпштейн / Rob Epstein, Джеффри Фридман / Jeffrey Friedman) [2014, документальный, кинематограф, DVB] DVO (NOVAMEDIA)


Статистика раздачи [Обновить пиров]
Размер:  2.69 GB   |    Зарегистрирован:  8 месяцев 17 дней   |    Скачан:  0 раз

Полного источника не было: Никогда

Личеров:  69  [  0 KB/s  ]   Подробная статистика пиров
 
   
 
 
 

[Цитировать]

Оскар. История Голливуда
And the Oscar Goes To...- Дата/Год выпуска: 2014
Страна: США
Жанр: документальный, кинематограф
Продолжительность: 01:34:36
Перевод: Профессиональный (двухголосый закадровый)
Доп. инфо о переводе: Студия NOVAMEDIA по заказу компании Amedia TV, текст читают Тутта Ларсен, Кирилл Туранский
Русские субтитры: нет
Режиссер: Роб Эпштейн / Rob Epstein, Джеффри Фридман / Jeffrey Friedman
Телеканал: Amedia 1
В ролях: Анжелика Хьюстон (narrator), Аннетт Бенинг, Эллен Бёрстин, Шер, Джордж Клуни, Билли Кристал, Бенисио Дель Торо, Джейн Фонда, Вупи Голдберг, Том Хэнкс, Бен Кингсли, Лайза Миннелли, Хелен Миррен, Стивен Спилберг, Джон Войт
Описание: Обладатели премий "Оскар", "Тедди" и лауреаты кинофестиваля в Сандансе документалисты Роб Эпштейн и Джеффри Фридман снова обращают взор к Фабрике грез. В новом фильме они решили проследить историю премии "Оскар", вручаемой Американской киноакадемией, за 85 лет ее существования.
Доп. информация: DVB-S

качество: DVB
формат: MKV
Видео: MPEG Video 2, 720x576@1024x576 (16:9), 25 fps, ~3798 kbps avg, 0.366 bit/pixel
Аудио: MPEG Audio 2, 2 ch, 48 kHz, ~192.00 kbps avg

MediaInfo

Общее
Уникальный идентификатор : 215025196501227702161377258621682364740 (0xA1C458B2843CAC83BAEF05F74178B144)
Полное имя : E:\My Torrents 2\[apreder]And_the_Oscar_Goes_To(2014)DVB.mkv
Формат : Matroska
Версия формата : Version 2
Размер файла : 2,69 Гбайт
Продолжительность : 1 ч. 34 м.
Режим общего битрейта : Переменный
Общий поток : 4071 Кбит/сек
Дата кодирования : UTC 2014-11-02 12:45:43
Программа кодирования : mkvmerge v7.3.0 ('Nouages') 64bit built on Oct 22 2014 18:53:34
Библиотека кодирования : libebml v1.3.0 + libmatroska v1.4.1
Видео
Идентификатор : 1
Формат : MPEG Video
Версия формата : Version 2
Профиль формата : Main@Main
Параметр BVOP формата : Нет
Параметр матрицы формата : Выборочная
Format_Settings_PictureStructure : Frame
Идентификатор кодека : V_MPEG2
Идентификатор кодека/Информация : MPEG 1 or 2 Video
Продолжительность : 1 ч. 34 м.
Вид битрейта : Переменный
Битрейт : 3798 Кбит/сек
Максимальный битрейт : 8020 Кбит/сек
Ширина : 720 пикселей
Высота : 576 пикселей
Соотношение сторон : 16:9
Режим частоты кадров : Постоянный
Частота кадров : 25,000 кадров/сек
Стандарт вещания : PAL
Цветовое пространство : YUV
Субдискретизация насыщенности : 4:2:0
Битовая глубина : 8 бит
Тип развёртки : Чересстрочная
Порядок развёртки : Верхнее поле первое
Метод сжатия : С потерями
Бит/(Пиксели*Кадры) : 0.366
Временной код первого кадра : 00:00:00:00
Оригинал временного кода : Group of pictures header
Размер потока : 2,51 Гбайт (93%)
Default : Да
Forced : Нет
Аудио
Идентификатор : 2
Формат : MPEG Audio
Версия формата : Version 1
Профиль формата : Layer 2
Идентификатор кодека : A_MPEG/L2
Идентификатор кодека/Подсказка : MP2
Продолжительность : 1 ч. 34 м.
Вид битрейта : Постоянный
Битрейт : 192 Кбит/сек
Каналы : 2 канала
Частота : 48,0 КГц
Метод сжатия : С потерями
Размер потока : 130 Мбайт (5%)
Язык : Russian
Default : Да
Forced : Нет

Скриншоты


Резервные скриншоты


-[1'871]
[teatrix.ru].t19369.torrent 
Торрент: Зарегистрирован [ 2016-03-18 12:48 ] · 12B6B2B3C8FF32807D3514F9E3C1B2C318607E30

Скачать .torrent

Скачать

14 KB

Статус: проверено
Скачан: 0 раз
Размер: 2.69 GB
terms.php



Показать сообщения:    

Текущее время: 04-Дек 23:20

Часовой пояс: UTC + 3


Вы не можете начинать темы
Вы не можете отвечать на сообщения
Вы не можете редактировать свои сообщения
Вы не можете удалять свои сообщения
Вы не можете голосовать в опросах
Вы не можете прикреплять файлы к сообщениям
Вы можете скачивать файлы