Joseph-Emile Szyfer, Claude Debussy, Edouard Lalo - Hommage a Lifar a l Opera National de Bordeaux (Serge Lifar, Nathan Fifield) [2014, ballet, WEBRip]


 

[Цитировать]

Hommage a Lifar a l Opera National de Bordeaux
Год выпуска: 2014
Лейбл: Opera National de Bordeaux
Страна-производитель: Франция
Жанр: ballet
Продолжительность: 01:27:18
Музыка: Joseph-Emile Szyfer, Claude Debussy, Edouard Lalo
Дирижер: Nathan Fifield
Исполнители музыки: Orchestre National de Bordeaux Aquitaine
Режиссер/Хореограф: Сергей Лифарь / Serge Lifar
Исполнители:
Ballet de l'Opéra National de Bordeaux / Direction Charles Jude
Треклист:
1. Icare (00:00:00-00:27:18)
2. Prélude à l'après-midi d'une Faune (00:27:18-00:39:48)
3. Suite en Blanc (00:39:48-01:27:18)
Описание: Запись трансляции от 28 октября 2014 года
Доп. информация:
Icare :
Chorégraphie et rythmes - Serge Lifar / Compositeur - Joseph-Emile Szyfer / Décors & Costumes - Paul Larthe, Pablo Picasso
Prélude à l'après-midi d'une Faune :
Chorégraphie - Serge Lifar d'après Nijinsky / Compositeur - Claude Debussy
Suite en Blanc :
Chorégraphie et rythmes - Serge Lifar / Compositeur - Edouard Lalo (extraits de "Namouna")
Качество видео: WEBRip
Формат/Контейнер: MKV
Видео кодек: H.264
Аудио кодек: AC3
Видео поток: MPEG4 Video (H264) 1280x720 25.00fps 6800 Kbps
Аудио поток: Dolby AC3 48000Hz stereo 256 Kbps

Mediainfo

Format : Matroska
File size : 4.27 GiB
Duration : 1h 27mn
Overall bit rate : 6 982 Kbps
Encoded date : UTC 2014-11-02 12:59:41
Writing application : mkvmerge v2.4.2 ('Oh My God') built on Jan 18 2009 17:30:28
Writing library : libebml v0.7.7 + libmatroska v0.8.1
Video
ID : 1
Format : AVC
Format/Info : Advanced Video Codec
Format profile : High@L4.1
Format settings, CABAC : Yes
Format settings, ReFrames : 3 frames
Muxing mode : Container profile=Unknown@4.1
Codec ID : V_MPEG4/ISO/AVC
Duration : 1h 27mn
Bit rate : 6 800 Kbps
Width : 1 280 pixels
Height : 720 pixels
Display aspect ratio : 16:9
Frame rate mode : Variable
Frame rate : 25.000 fps
Color space : YUV
Chroma subsampling : 4:2:0
Bit depth : 8 bits
Scan type : Progressive
Bits/(Pixel*Frame) : 0.295
Stream size : 4.03 GiB (94%)
Writing library : x264 core 116 r2019M 9cc407d
Encoding settings : cabac=1 / ref=3 / deblock=1:0:0 / analyse=0x3:0x133 / me=hex / subme=7 / psy=1 / psy_rd=1.00:0.20 / mixed_ref=1 / me_range=16 / chroma_me=1 / trellis=1 / 8x8dct=1 / cqm=0 / deadzone=21,11 / fast_pskip=1 / chroma_qp_offset=-3 / threads=12 / sliced_threads=0 / nr=0 / decimate=1 / interlaced=0 / bluray_compat=0 / constrained_intra=0 / bframes=3 / b_pyramid=1 / b_adapt=2 / b_bias=0 / direct=3 / weightb=1 / open_gop=0 / weightp=2 / keyint=250 / keyint_min=25 / scenecut=40 / intra_refresh=0 / rc_lookahead=40 / rc=2pass / mbtree=1 / bitrate=6800 / ratetol=1.0 / qcomp=0.60 / qpmin=10 / qpmax=51 / qpstep=4 / cplxblur=20.0 / qblur=0.5 / ip_ratio=1.40 / aq=1:1.00
Language : English
Audio
ID : 2
Format : AC-3
Format/Info : Audio Coding 3
Mode extension : CM (complete main)
Codec ID : A_AC3
Duration : 1h 27mn
Bit rate mode : Constant
Bit rate : 256 Kbps
Channel(s) : 2 channels
Channel positions : Front: L R
Sampling rate : 48.0 KHz
Bit depth : 16 bits
Stream size : 160 MiB (4%)

Скриншоты




Показать сообщения:    

Текущее время: 08-Дек 23:12

Часовой пояс: UTC + 3


Вы не можете начинать темы
Вы не можете отвечать на сообщения
Вы не можете редактировать свои сообщения
Вы не можете удалять свои сообщения
Вы не можете голосовать в опросах
Вы не можете прикреплять файлы к сообщениям
Вы не можете скачивать файлы