Как создавалась "История игрушек" / The story behind Toy Story (Фил Савеник / Phil Savenick) [1996, документальный, короткометражка, мультфильм, DVB-AVC]


Статистика раздачи [Обновить пиров]
Размер:  499 MB   |    Зарегистрирован:  8 месяцев 22 дня   |    Скачан:  0 раз

Полного источника не было: Никогда

Личеров:  30  [  0 KB/s  ]   Подробная статистика пиров
 
   
 
 
 

[Цитировать]

Как создавалась "История игрушек" / The story behind Toy Story
Год выпуска: 1996
Страна: США
Жанр: документальный, короткометражка, мультфильм
Продолжительность: 00:27:12
Перевод: Профессиональный (многоголосый закадровый)
Русские субтитры: нет
Режиссёр: Фил Савеник / Phil Savenick
Описание: документальное кино о создании анимационного фильма "История игрушек" ...
Доп. информация: Запись (захват) спутниковой трансляции канала "Дисней".

Релиз группы:
Семпл: https://yadi.sk/i/e2R-TWRlcSyn6
Качество видео: DVB
Формат видео: MPEG-TS
Видео: MPEG4 Video (H264), 720x576@785x576 (4:3), анаморф, 25 fps, 2200 kbps
Аудио: MPEG Audio, 2 сh, 48 kHz, 192 kbps

MediaInfo

General
ID : 1 (0x1)
Complete name : D:\Как создавалась История игрушек. (1996)_DVB by SLuMeP.ts
Format : MPEG-TS
File size : 499 MiB
Duration : 27mn 12s
Overall bit rate mode : Variable
Overall bit rate : 2 563 Kbps
Video
ID : 38 (0x26)
Menu ID : 1 (0x1)
Format : AVC
Format/Info : Advanced Video Codec
Format profile : Main@L3.0
Format settings, CABAC : Yes
Format settings, ReFrames : 4 frames
Codec ID : 27
Duration : 27mn 12s
Bit rate : 2 242 Kbps
Width : 720 pixels
Height : 576 pixels
Display aspect ratio : 4:3
Frame rate : 25.000 fps
Standard : PAL
Color space : YUV
Chroma subsampling : 4:2:0
Bit depth : 8 bits
Scan type : Interlaced
Bits/(Pixel*Frame) : 0.216
Stream size : 436 MiB (87%)
Color primaries : BT.601 PAL
Transfer characteristics : BT.470 System B, BT.470 System G
Matrix coefficients : BT.601
Audio
ID : 37 (0x25)
Menu ID : 1 (0x1)
Format : MPEG Audio
Format version : Version 1
Format profile : Layer 2
Codec ID : 3
Duration : 27mn 12s
Bit rate mode : Constant
Bit rate : 192 Kbps
Channel(s) : 2 channels
Sampling rate : 48.0 KHz
Compression mode : Lossy
Stream size : 37.4 MiB (7%)
Language : English
[teatrix.ru].t19371.torrent 
Торрент: Зарегистрирован [ 2016-03-18 12:48 ] · 3D15BED47C0B96AE11BC10F1D61B84DA18DAB56A

Скачать .torrent

Скачать

20 KB

Статус: проверено
Скачан: 0 раз
Размер: 499 MB
terms.php



Показать сообщения:    

Текущее время: 10-Дек 04:12

Часовой пояс: UTC + 3


Вы не можете начинать темы
Вы не можете отвечать на сообщения
Вы не можете редактировать свои сообщения
Вы не можете удалять свои сообщения
Вы не можете голосовать в опросах
Вы не можете прикреплять файлы к сообщениям
Вы можете скачивать файлы