(Classical) Philippe Rogier - Music from the Missae Sex: Missa Inclita stirps Jesse; Missa Philippus Secundus Rex Hispaniae - Magnificat, Philip Cave; His Majestys Sagbutts and Cornetts - 2011, FLAC (image+.cue) lossless


Статистика раздачи [Обновить пиров]
Размер:  335 MB   |    Зарегистрирован:  8 месяцев 16 дней   |    Скачан:  0 раз

Полного источника не было: Никогда

Личеров:  21  [  0 KB/s  ]   Подробная статистика пиров
 
   
 
 
 

[Цитировать]

Philippe Rogier - Music from the Missae Sex: Missa Inclita stirps Jesse; Missa Philippus Secundus Rex Hispaniae - Magnificat, Philip Cave; His Majestys Sagbutts and Cornetts
Жанр: Classical
Страна-производитель диска: UK
Год издания диска: 2011
Издатель (лейбл): Linn Records
Номер по каталогу: CKD 387
Дата записи: 2011
Аудиокодек: FLAC
Тип рипа: image+.cue
Битрейт аудио: lossless
Продолжительность: 74:41
Источник: собственный рип
Наличие сканов в содержимом раздачи: да
Треклист:
Jacobus Clemens (c.1510-c.1556)
[1] Inclita stirps Jesse
Philippe Rogier (c.1561-1596)
[2]-[6] Missa Inclita Stirps Jesse
Antonio de Cabezón (1510-1566)
[7] Cancion francesca glosada
Philippe Rogier
Missa Philippus Secundus Rex Hispaniae
[8] Kyrie
[9] Gloria
[10] Da pacem, Domine
Missa Philippus Secundus Rex Hispaniae
[11] Credo
Antonio de Cabezón
[12] Ave maris stella
Philippe Rogier
Missa Philippus Secundus Rex Hispaniae
[13] Sanctus & Benedictus
[14] Agnus Dei
Исполнители:
Magnificat
directed by Philip Cave
His Majestys Sagbutts and Cornetts

Лог создания рипа

Exact Audio Copy V1.0 beta 3 from 29. August 2011
EAC extraction logfile from 30. October 2014, 0:33
Magnificat, Philip Cave / Rogier - Music from the Missae Sex
Used drive : HL-DT-STDVDRAM GU70N Adapter: 0 ID: 0
Read mode : Secure
Utilize accurate stream : Yes
Defeat audio cache : Yes
Make use of C2 pointers : No
Read offset correction : 48
Overread into Lead-In and Lead-Out : No
Fill up missing offset samples with silence : Yes
Delete leading and trailing silent blocks : No
Null samples used in CRC calculations : Yes
Used interface : Native Win32 interface for Win NT & 2000
Used output format : User Defined Encoder
Selected bitrate : 128 kBit/s
Quality : High
Add ID3 tag : No
Command line compressor : C:\Program Files (x86)\Exact Audio Copy\Flac\flac.exe
Additional command line options : -V -8 -T "Date=%year%" -T "Genre=%genre%" %source%
TOC of the extracted CD
Track | Start | Length | Start sector | End sector
---------------------------------------------------------
1 | 0:00.00 | 5:24.01 | 0 | 24300
2 | 5:24.01 | 5:21.69 | 24301 | 48444
3 | 10:45.70 | 6:25.65 | 48445 | 77384
4 | 17:11.60 | 10:44.06 | 77385 | 125690
5 | 27:55.66 | 5:38.56 | 125691 | 151096
6 | 33:34.47 | 4:18.37 | 151097 | 170483
7 | 37:53.09 | 2:13.52 | 170484 | 180510
8 | 40:06.61 | 3:30.25 | 180511 | 196285
9 | 43:37.11 | 5:44.47 | 196286 | 222132
10 | 49:21.58 | 1:59.11 | 222133 | 231068
11 | 51:20.69 | 9:11.24 | 231069 | 272417
12 | 60:32.18 | 3:57.63 | 272418 | 290255
13 | 64:30.06 | 6:26.72 | 290256 | 319277
14 | 70:57.03 | 3:42.48 | 319278 | 335975
Range status and errors
Selected range
Filename C:\temp\Rogier - Music from the Missae Sex\Rogier - Music from the Missae Sex.wav
Peak level 92.9 %
Extraction speed 2.2 X
Range quality 99.9 %
Test CRC FC01D307
Copy CRC FC01D307
Copy OK
No errors occurred
AccurateRip summary
Track 1 accurately ripped (confidence 2) [659B5E32] (AR v2)
Track 2 accurately ripped (confidence 2) [0C191458] (AR v2)
Track 3 accurately ripped (confidence 2) [68C93F4E] (AR v2)
Track 4 accurately ripped (confidence 2) [F006438D] (AR v2)
Track 5 accurately ripped (confidence 2) [449D2B50] (AR v2)
Track 6 accurately ripped (confidence 2) [56D51965] (AR v2)
Track 7 accurately ripped (confidence 2) [A80BC116] (AR v2)
Track 8 accurately ripped (confidence 2) [C54EF569] (AR v2)
Track 9 accurately ripped (confidence 2) [C2288F0D] (AR v2)
Track 10 accurately ripped (confidence 2) [DFBEF230] (AR v2)
Track 11 accurately ripped (confidence 2) [FDCFBB6E] (AR v2)
Track 12 accurately ripped (confidence 2) [5EB747AA] (AR v2)
Track 13 accurately ripped (confidence 2) [537F7E05] (AR v2)
Track 14 accurately ripped (confidence 2) [3B6C63C1] (AR v2)
All tracks accurately ripped
End of status report
==== Log checksum 0001CE9DB44A2679C76F3798A80021DB332DDF787A298BAF749E29ECE8F1F4B5 ====
[teatrix.ru].t19372.torrent 
Торрент: Зарегистрирован [ 2016-03-18 12:48 ] · 7FE4015A6A32983853482A9890F1DE32F3422168

Скачать .torrent

Скачать

28 KB

Статус: проверено
Скачан: 0 раз
Размер: 335 MB
terms.php



Быстрый ответ

Имя:

      
Для отправки сообщений необходимо включить JavaScript
Показать сообщения:    

Текущее время: 03-Дек 22:45

Часовой пояс: UTC + 3


Вы можете начинать темы
Вы можете отвечать на сообщения
Вы не можете редактировать свои сообщения
Вы не можете удалять свои сообщения
Вы не можете голосовать в опросах
Вы не можете прикреплять файлы к сообщениям
Вы можете скачивать файлы