Младший сын Сталина (Денис Шулепов) [2013, Документальный, биография, история, IPTVRip]


Статистика раздачи [Обновить пиров]
Размер:  701 MB   |    Зарегистрирован:  8 месяцев 15 дней   |    Скачан:  0 раз

Полного источника не было: Никогда

Личеров:  5  [  0 KB/s  ]   Подробная статистика пиров
 
   
 
 
 

[Цитировать]

Младший сын Сталина
Дата/Год выпуска: 2013
Страна: Россия, ВГТРК
Жанр: Документальный, биография, история
Продолжительность: 00:44:16
Перевод: Не требуется
Русские субтитры: нет
Режиссер: Денис Шулепов
Телеканал: ТК "История"
Описание: Младший сын Сталина Василий вошел в историю как любимчик отца, который во время его правления сделал блестящую карьеру от лейтенанта до генерал-лейтенанта, перепрыгивая звания и должности на пути. Но все это после смерти Сталина было перечеркнуто. Василия Иосифовича обвинили в хищениях государственных средств и имущества в особо крупных размерах, арестовали, лишили воинских званий, а после пребывания в тюрьме отправили в ссылку в Казань.
В основу фильма положены события последних лет жизни Василия Сталина. В нем приняли участие его летчики-сослуживцы и сын Александр Бурдонский.
Сэмпл: http://multi-up.com/1010643
качество: IPTVRip
формат: AVI
Видео: 720x416 (1.73:1), 25 fps, XviD 66~2011 kbps avg, 0.27 bit/pixel
Аудио: 48 kHz, AC3 Dolby Digital, 2/0 (L,R) ch, ~192 kbps

MediaInfo

General
Complete name : L:\Pshichko66\Na zapis'\Документальные фильмы\Mladshij syn Stalina.avi
Format : AVI
Format/Info : Audio Video Interleave
File size : 701 MiB
Duration : 44mn 16s
Overall bit rate : 2 214 Kbps
Writing application : VirtualDubMod 1.5.10.3 | www.virtualdub-fr.org || (build 2550/release)
Writing library : VirtualDubMod build 2550/release
Video
ID : 0
Format : MPEG-4 Visual
Format profile : Advanced Simple@L5
Format settings, BVOP : 2
Format settings, QPel : No
Format settings, GMC : No warppoints
Format settings, Matrix : Custom
Codec ID : XVID
Codec ID/Hint : XviD
Duration : 44mn 16s
Bit rate : 2 012 Kbps
Width : 720 pixels
Height : 416 pixels
Display aspect ratio : 1.731
Frame rate : 25.000 fps
Color space : YUV
Chroma subsampling : 4:2:0
Bit depth : 8 bits
Scan type : Progressive
Compression mode : Lossy
Bits/(Pixel*Frame) : 0.269
Stream size : 637 MiB (91%)
Writing library : XviD 66
Audio
ID : 1
Format : AC-3
Format/Info : Audio Coding 3
Mode extension : CM (complete main)
Format settings, Endianness : Big
Codec ID : 2000
Duration : 44mn 12s
Bit rate mode : Constant
Bit rate : 192 Kbps
Channel count : 2 channels
Channel positions : Front: L R
Sampling rate : 48.0 KHz
Bit depth : 16 bits
Compression mode : Lossy
Stream size : 60.7 MiB (9%)
Alignment : Split accross interleaves
Interleave, duration : 40 ms (1.00 video frame)
Interleave, preload duration : 500 ms

Скриншоты

[teatrix.ru].t19375.torrent 
Торрент: Зарегистрирован [ 2016-03-18 12:48 ] · 2E8CE63EF823AC62765DCBAA9D1987D4D7DE69E6

Скачать .torrent

Скачать

14 KB

Статус: проверено
Скачан: 0 раз
Размер: 701 MB
terms.php



Быстрый ответ

Имя:

      
Для отправки сообщений необходимо включить JavaScript
Показать сообщения:    

Текущее время: 03-Дек 07:37

Часовой пояс: UTC + 3


Вы можете начинать темы
Вы можете отвечать на сообщения
Вы не можете редактировать свои сообщения
Вы не можете удалять свои сообщения
Вы не можете голосовать в опросах
Вы не можете прикреплять файлы к сообщениям
Вы можете скачивать файлы