Невообразимое зло / Unforgettably Evil (Себастьян Бауэр / Sebastian Bauer) [2009, документальный, ужасы, кинематограф, DVB] DVO (NOVAMEDIA)


Статистика раздачи [Обновить пиров]
Размер:  1.64 GB   |    Зарегистрирован:  8 месяцев 20 дней   |    Скачан:  0 раз

Полного источника не было: Никогда

Личеров:  6  [  0 KB/s  ]   Подробная статистика пиров
 
   
 
 
 

[Цитировать]

Невообразимое зло
Unforgettably Evil- Дата/Год выпуска: 2009
Страна: США
Жанр: документальный, ужасы, кинематограф
Продолжительность: 00:57:51
Перевод: Профессиональный (двухголосый закадровый)
Доп. инфо о переводе: Студия NOVAMEDIA по заказу компании Amedia TV
Русские субтитры: нет
Режиссер: Себастьян Бауэр / Sebastian Bauer
Телеканал: Amedia 1В ролях: Дэвид Каррадайн, Джеймс Кромвелл, Джеймс Ньютон Ховард, Брюс Гринвуд, Дэрил Ханна, Джо Мантенья, Малькольм Макдауэлл, Роберт Патрик, Эрик Робертс, Кёртвуд Смит, Уильям Фихтнер, Эли Рот
Описание: Злодей обеспечивает конфликт, необходимый для захватывающей истории. Кино помогло нам изменить представление об известных плохих парнях. Неважно, машина это, монстр, мужчина или женщина. У всех из них есть общая черта. Все они - невообразимое зло...
Доп. информация: DVB-S

качество: DVB
формат: MKV
Видео: MPEG Video 2, 720x576@1024x576 (16:9), 25 fps, ~3793 kbps avg, 0.366 bit/pixel
Аудио: MPEG Audio 2, 2 ch, 48 kHz, ~192.00 kbps avg

MediaInfo

Общее
Уникальный идентификатор : 198851696157158850221062678418104348408 (0x9599719090773273A525FF44C4C56EF8)
Полное имя : E:\My Torrents 2\[apreder]Unforgettably_Evil(2009)DVB.mkv
Формат : Matroska
Версия формата : Version 2
Размер файла : 1,64 Гбайт
Продолжительность : 57 м.
Режим общего битрейта : Переменный
Общий поток : 4066 Кбит/сек
Дата кодирования : UTC 2014-11-03 16:19:25
Программа кодирования : mkvmerge v7.3.0 ('Nouages') 64bit built on Oct 22 2014 18:53:34
Библиотека кодирования : libebml v1.3.0 + libmatroska v1.4.1
Видео
Идентификатор : 1
Формат : MPEG Video
Версия формата : Version 2
Профиль формата : Main@Main
Параметр BVOP формата : Нет
Параметр матрицы формата : Выборочная
Format_Settings_PictureStructure : Frame
Идентификатор кодека : V_MPEG2
Идентификатор кодека/Информация : MPEG 1 or 2 Video
Продолжительность : 57 м.
Вид битрейта : Переменный
Битрейт : 3793 Кбит/сек
Максимальный битрейт : 8637 Кбит/сек
Ширина : 720 пикселей
Высота : 576 пикселей
Соотношение сторон : 16:9
Режим частоты кадров : Постоянный
Частота кадров : 25,000 кадров/сек
Стандарт вещания : PAL
Цветовое пространство : YUV
Субдискретизация насыщенности : 4:2:0
Битовая глубина : 8 бит
Тип развёртки : Чересстрочная
Порядок развёртки : Верхнее поле первое
Метод сжатия : С потерями
Бит/(Пиксели*Кадры) : 0.366
Временной код первого кадра : 00:00:00:00
Оригинал временного кода : Group of pictures header
Размер потока : 1,53 Гбайт (93%)
Default : Да
Forced : Нет
Аудио
Идентификатор : 2
Формат : MPEG Audio
Версия формата : Version 1
Профиль формата : Layer 2
Идентификатор кодека : A_MPEG/L2
Идентификатор кодека/Подсказка : MP2
Продолжительность : 57 м.
Вид битрейта : Постоянный
Битрейт : 192 Кбит/сек
Каналы : 2 канала
Частота : 48,0 КГц
Метод сжатия : С потерями
Размер потока : 79,5 Мбайт (5%)
Язык : Russian
Default : Да
Forced : Нет

Скриншоты


Резервные скриншоты


-[1'878]
[teatrix.ru].t19377.torrent 
Торрент: Зарегистрирован [ 2016-03-18 12:48 ] · 110478BDF00B78F8FDE84E5B1446984AF5F293D8

Скачать .torrent

Скачать

17 KB

Статус: проверено
Скачан: 0 раз
Размер: 1.64 GB
terms.php



Показать сообщения:    

Текущее время: 07-Дек 13:37

Часовой пояс: UTC + 3


Вы не можете начинать темы
Вы не можете отвечать на сообщения
Вы не можете редактировать свои сообщения
Вы не можете удалять свои сообщения
Вы не можете голосовать в опросах
Вы не можете прикреплять файлы к сообщениям
Вы можете скачивать файлы