Смерть Сталина. Конец эпохи / Stalin’s Death – The End of an Era [2014, Документальный, история, биография, IPTVRip]


Статистика раздачи [Обновить пиров]
Размер:  597 MB   |    Зарегистрирован:  8 месяцев 16 дней   |    Скачан:  0 раз

Полного источника не было: Никогда

 
   
 
 
 

[Цитировать]

Смерть Сталина. Конец эпохи / Stalin’s Death – The End of an Era
Дата/Год выпуска: 2014
Жанр: Документальный, история, биография
Продолжительность: 00:43:29
Перевод: Одноголосый закадровый
Телеканал: Viasat History
Описание: 3 марта 1953 года умер Иосиф Сталин. Более 1,5 миллиона граждан Советского Союза со всей страны отправляются в Москву, чтобы проститься с великим вождем. С жизнью этого человека была связана целая эпоха в жизни Советского союза, которая неожиданно закончилась, и вызвала мгновенную жесткую борьбу за власть в Кремле. К удивлению большинства, Никита Хрущев становится преемником Сталина. Впервые в этом фильме двойник Сталина, офицеры разведки, сын Никиты Хрущева расскажут о последних днях Иосифа Сталина.
Доп. информация: IPTVRip by alf62

качество: IPTVRip
формат: AVI
Видео: 720x400 (1.80:1), 25 fps, DivX, 1721 kbps avg, 0.24 bit/pixel
Аудио: 48 kHz, AC3 Dolby Digital, 2/0 (L,R) ch, ~192.00 kbps avg

MediaInfo

Смерть Сталина. Конец эпохи\Smert.Stalina.Konec.jepohi.2014.DivX.IPTVRip.alf62.avi
Формат : AVI
Формат/Информация : Audio Video Interleave
Размер файла : 597 Мбайт
Продолжительность : 43 м.
Общий поток : 1919 Кбит/сек
Программа кодирования : VirtualDubModRus 1.5.10.2 (build 2542/release)
Библиотека кодирования : VirtualDubMod build 2542/release
Видео
Идентификатор : 0
Формат : MPEG-4 Visual
Профиль формата : Advanced Simple@L5
Параметр BVOP формата : 2
Параметр QPel формата : Нет
Параметр GMC формата : Без точки перехода
Параметр матрицы формата : Default (MPEG)
Идентификатор кодека : DX50
Идентификатор кодека/Подсказка : DivX 5
Продолжительность : 43 м.
Битрейт : 1718 Кбит/сек
Ширина : 720 пикселей
Высота : 400 пикселей
Соотношение сторон : 16:9
Частота кадров : 25,000 кадров/сек
Цветовое пространство : YUV
Субдискретизация насыщенности : 4:2:0
Битовая глубина : 8 бит
Тип развёртки : Прогрессивная
Метод сжатия : С потерями
Бит/(Пиксели*Кадры) : 0.239
Размер потока : 534 Мбайт (89%)
Библиотека кодирования : XviD 73
Аудио
Идентификатор : 1
Формат : AC-3
Формат/Информация : Audio Coding 3
Расширение режима : CM (complete main)
Параметр Endianness формата : Big
Идентификатор кодека : 2000
Продолжительность : 43 м.
Вид битрейта : Постоянный
Битрейт : 192 Кбит/сек
Каналы : 2 канала
Расположение каналов : Front: L R
Частота : 48,0 КГц
Битовая глубина : 16 бит
Метод сжатия : С потерями
Размер потока : 59,7 Мбайт (10%)
Выравнивание : Разделение по промежуткам
Продолжительность промежутка : 40 мс. (1,00 видеокадр)
Время предзагрузки промежутка : 500 мс.
[teatrix.ru].t19382.torrent 
Торрент: Зарегистрирован [ 2016-03-18 12:37 ] · 8F1BBFB2D1DC73FAB6DE832B2311A2F2A588A30B

Скачать .torrent

Скачать

12 KB

Статус: проверено
Скачан: 0 раз
Размер: 597 MB
terms.php



Быстрый ответ

Имя:

      
Для отправки сообщений необходимо включить JavaScript
Показать сообщения:    

Текущее время: 04-Дек 04:55

Часовой пояс: UTC + 3


Вы можете начинать темы
Вы можете отвечать на сообщения
Вы не можете редактировать свои сообщения
Вы не можете удалять свои сообщения
Вы не можете голосовать в опросах
Вы не можете прикреплять файлы к сообщениям
Вы можете скачивать файлы