(Classical) Ludwig van Beethoven - Complete Symphonies (David Zinman, Tonhalle Orchestra Zurich, Schweizer Kammerchor; Ziesak, Remmert, Davislim, Roth) [5CD] - 1999, FLAC (image+.cue) lossless


 

[Цитировать]

Beethoven - Complete Symphonies (David Zinman, Tonhalle Orchestra Zurich, Schweizer Kammerchor; Ziesak, Remmert, Davislim, Roth)
Жанр: Classical
Год издания диска: 1999
Издатель (лейбл): Arte Nova
Дата записи:
Аудиокодек: FLAC
Тип рипа: image+.cue
Битрейт аудио: lossless
Продолжительность: CD1' 54:05, CD2' 75:27, CD3' 73:37, CD4' 60:34, CD5' 72:35
Источник: скачано из сети
Наличие сканов в содержимом раздачи: да
Исполнители:
Fritz Naf - chorus master
Ruth Ziesak - soprano
Brigit Remmert - alto
Steve Davislim - tenor
Detlef Roth - bass
Schweizer Kammerchor
Tonhalle Orchestra Zurich
David Zinman
Ludwig van Beethoven (1770-1827)

CD 1 - Symphonien Nr. 1 & 2 (1998, Arte Nova # 74321 63645 2)

Symphony No. 1 In C Major, Op. 21:
1. I. Adagio molto
2. II. Andante cantabile con moto
3. III. Menuetto
4. IV. Adagio - Allegro molto e vivace
Symphony No. 2 In D Major, Op. 36:
5. I. Adagio molto
6. II. Larghetto
7. III. Scherzo. Allegro
8. IV. Allegro molto

LOG EAC CD1

Exact Audio Copy V1.0 beta 3 from 29. August 2011
EAC extraction logfile from 15. July 2013, 15:06
Zinman, TonhalleOrch. Zürich / Beethoven: Symphonien Nr. 1 & 2
Used drive : PIONEER BD-RW BDR-206 Adapter: 0 ID: 2
Read mode : Secure
Utilize accurate stream : Yes
Defeat audio cache : Yes
Make use of C2 pointers : No
Read offset correction : 667
Overread into Lead-In and Lead-Out : No
Fill up missing offset samples with silence : Yes
Delete leading and trailing silent blocks : No
Null samples used in CRC calculations : Yes
Used interface : Native Win32 interface for Win NT & 2000
Used output format : User Defined Encoder
Selected bitrate : 1024 kBit/s
Quality : High
Add ID3 tag : Yes
Command line compressor : C:\Program Files\FLAC\flac.exe
Additional command line options : -5 -T "Artist=%artist%" -T "Title=%title%" -T "Album=%albumtitle%" -T "Date=%year%" -T "Tracknumber=%tracknr%" -T "Genre=%genre%" %source% -o %dest%
TOC of the extracted CD
Track | Start | Length | Start sector | End sector
---------------------------------------------------------
1 | 0:00.32 | 8:05.13 | 32 | 36419
2 | 8:05.45 | 6:43.37 | 36420 | 66681
3 | 14:49.07 | 4:07.25 | 66682 | 85231
4 | 18:56.32 | 5:16.00 | 85232 | 108931
5 | 24:12.32 | 11:00.50 | 108932 | 158481
6 | 35:13.07 | 9:02.50 | 158482 | 199181
7 | 44:15.57 | 3:36.38 | 199182 | 215419
8 | 47:52.20 | 6:13.12 | 215420 | 243406
Range status and errors
Selected range
Filename F:\=== VINYL RIPS ===\=== EAC===\X FRESH RIP\Beethoven- Zinman, TonhalleOrch. Zürich - Symphonien Nr. 1 & 2.wav
Peak level 98.8 %
Extraction speed 7.4 X
Range quality 100.0 %
Copy CRC E58F60B2
Copy OK
No errors occurred
AccurateRip summary
Track 1 accurately ripped (confidence 11) [0717F7CE] (AR v2)
Track 2 accurately ripped (confidence 11) [D0BA9303] (AR v2)
Track 3 accurately ripped (confidence 11) [55A49069] (AR v2)
Track 4 accurately ripped (confidence 10) [1248EB0F] (AR v2)
Track 5 accurately ripped (confidence 10) [EDD236E9] (AR v2)
Track 6 accurately ripped (confidence 9) [4C236F28] (AR v2)
Track 7 accurately ripped (confidence 11) [59082403] (AR v2)
Track 8 accurately ripped (confidence 11) [16A3A9CB] (AR v2)
All tracks accurately ripped
End of status report
---- CUETools DB Plugin V2.1.3
[CTDB TOCID: zkftsvR0pcIY8JHlaSop.J642OY-] found, Submit result: discs with pregaps not supported in this protocol version
[23e50d53] (122/122) Differs in 19784 samples @00:00:12-00:00:42
You can use CUETools to repair this rip.
==== Log checksum 81E32FF2B1505E15A36D56FE698208A5F5D653433451BC05FC1FC2038C9E643C ====

CD 2 - Symphonies Nos. 3 & 4 (1998, Arte Nova # 74321 59214 2)

Symphony No.3 In E Flat Major Op.55:
1. I. Allegro con brio
2. II. Marcia funebre
3. III. Scherzo
4. Finale - Allegro molto
Symphony No.4 In B FLat Major Op.60:
5. I. Adagio - Allegro vivace
6. II. Adagio
7. III. Allegro vivace
8. IV. Allegro ma non troppo

LOG EAC CD2

Exact Audio Copy V1.0 beta 3 from 29. August 2011
EAC extraction logfile from 15. July 2013, 15:31
Zinman, TonhalleOrch. Zürich / Beethoven: Symphonien Nr. 3 & 4
Used drive : PIONEER BD-RW BDR-206 Adapter: 0 ID: 2
Read mode : Secure
Utilize accurate stream : Yes
Defeat audio cache : Yes
Make use of C2 pointers : No
Read offset correction : 667
Overread into Lead-In and Lead-Out : No
Fill up missing offset samples with silence : Yes
Delete leading and trailing silent blocks : No
Null samples used in CRC calculations : Yes
Used interface : Native Win32 interface for Win NT & 2000
Used output format : User Defined Encoder
Selected bitrate : 1024 kBit/s
Quality : High
Add ID3 tag : Yes
Command line compressor : C:\Program Files\FLAC\flac.exe
Additional command line options : -5 -T "Artist=%artist%" -T "Title=%title%" -T "Album=%albumtitle%" -T "Date=%year%" -T "Tracknumber=%tracknr%" -T "Genre=%genre%" %source% -o %dest%
TOC of the extracted CD
Track | Start | Length | Start sector | End sector
---------------------------------------------------------
1 | 0:00.32 | 15:36.50 | 32 | 70281
2 | 15:37.07 | 12:59.00 | 70282 | 128706
3 | 28:36.07 | 6:15.50 | 128707 | 156881
4 | 34:51.57 | 10:31.50 | 156882 | 204256
5 | 45:23.32 | 10:01.13 | 204257 | 249344
6 | 55:24.45 | 8:15.62 | 249345 | 286531
7 | 63:40.32 | 5:19.38 | 286532 | 310494
8 | 68:59.70 | 6:26.62 | 310495 | 339506
Range status and errors
Selected range
Filename F:\=== VINYL RIPS ===\=== EAC===\X FRESH RIP\Beethoven- Zinman, TonhalleOrch. Zürich - Symphonien Nr. 3 & 4.wav
Peak level 98.9 %
Extraction speed 8.2 X
Range quality 100.0 %
Test CRC 8BB31A6E
Copy CRC 8BB31A6E
Copy OK
No errors occurred
AccurateRip summary
Track 1 accurately ripped (confidence 11) [F055ACC7] (AR v2)
Track 2 accurately ripped (confidence 11) [51B1CB39] (AR v2)
Track 3 accurately ripped (confidence 11) [492A7867] (AR v2)
Track 4 accurately ripped (confidence 11) [CF4148B9] (AR v2)
Track 5 accurately ripped (confidence 11) [1737063C] (AR v2)
Track 6 accurately ripped (confidence 9) [865B676A] (AR v2)
Track 7 accurately ripped (confidence 11) [F4504E64] (AR v2)
Track 8 accurately ripped (confidence 10) [32B7EBB4] (AR v2)
All tracks accurately ripped
End of status report
---- CUETools DB Plugin V2.1.3
[CTDB TOCID: tGsZmPRky_iQxRfHpdLcp2HMZJU-] found, Submit result: discs with pregaps not supported in this protocol version
[deb2f6f9] (121/121) Differs in 17887 samples @00:00:13-00:00:42
You can use CUETools to repair this rip.
==== Log checksum A3D08B5AD127B4BB9513EB1A0BEA56386395ADBEEE5D214C0C7D295A881C115A ====

CD 3 - Symphonies Nos. 5 & 6 (1997, Arte Nova # 74321 49695 2)

Symphony No. 5 In C Minor Op.67:
1. I. Allegro con brio
2. II. Andante con moto
3. III. Allegro
4. IV. Allegro
Symphony No. 6 In F Major 'Pastorale' Op.68:
5. I. Allegro ma non troppo
6. II. Andante molto moto
7. III. Allegro
8. IV. Allegro
9. V. Allegretto

LOG EAC CD3

Exact Audio Copy V1.0 beta 3 from 29. August 2011
EAC extraction logfile from 15. July 2013, 15:43
Zinman, TonhalleOrch. Zürich / Beethoven: Symphonien Nr. 5 & 6
Used drive : PIONEER BD-RW BDR-206 Adapter: 0 ID: 2
Read mode : Secure
Utilize accurate stream : Yes
Defeat audio cache : Yes
Make use of C2 pointers : No
Read offset correction : 667
Overread into Lead-In and Lead-Out : No
Fill up missing offset samples with silence : Yes
Delete leading and trailing silent blocks : No
Null samples used in CRC calculations : Yes
Used interface : Native Win32 interface for Win NT & 2000
Used output format : User Defined Encoder
Selected bitrate : 1024 kBit/s
Quality : High
Add ID3 tag : Yes
Command line compressor : C:\Program Files\FLAC\flac.exe
Additional command line options : -5 -T "Artist=%artist%" -T "Title=%title%" -T "Album=%albumtitle%" -T "Date=%year%" -T "Tracknumber=%tracknr%" -T "Genre=%genre%" %source% -o %dest%
TOC of the extracted CD
Track | Start | Length | Start sector | End sector
---------------------------------------------------------
1 | 0:00.32 | 6:52.25 | 32 | 30956
2 | 6:52.57 | 8:48.60 | 30957 | 70616
3 | 15:41.42 | 7:18.73 | 70617 | 103539
4 | 23:00.40 | 10:33.70 | 103540 | 151084
5 | 33:34.35 | 10:23.47 | 151085 | 197856
6 | 43:58.07 | 12:05.20 | 197857 | 252251
7 | 56:03.27 | 4:49.03 | 252252 | 273929
8 | 60:52.30 | 3:36.37 | 273930 | 290166
9 | 64:28.67 | 9:08.23 | 290167 | 331289
Range status and errors
Selected range
Filename F:\=== VINYL RIPS ===\=== EAC===\X FRESH RIP\Beethoven- Zinman, TonhalleOrch. Zürich - Symphonien Nr. 5 & 6.wav
Peak level 98.6 %
Extraction speed 8.2 X
Range quality 100.0 %
Copy CRC 2C4A83C5
Copy OK
No errors occurred
AccurateRip summary
Track 1 accurately ripped (confidence 10) [2E3FC7AB] (AR v2)
Track 2 accurately ripped (confidence 10) [B3DFEC2B] (AR v2)
Track 3 accurately ripped (confidence 10) [2D7C071B] (AR v2)
Track 4 accurately ripped (confidence 10) [4855F32E] (AR v2)
Track 5 accurately ripped (confidence 10) [4B5D840F] (AR v2)
Track 6 accurately ripped (confidence 10) [377EDB10] (AR v2)
Track 7 accurately ripped (confidence 10) [10B255DE] (AR v2)
Track 8 accurately ripped (confidence 10) [4BC328F9] (AR v2)
Track 9 accurately ripped (confidence 10) [1C95E10E] (AR v2)
All tracks accurately ripped
End of status report
---- CUETools DB Plugin V2.1.3
[CTDB TOCID: j7UBtvaMKxXsDFU5t9mIkE_CEEw-] found, Submit result: discs with pregaps not supported in this protocol version
[7cb5429d] (137/137) Differs in 13657 samples @00:00:31-00:00:43
You can use CUETools to repair this rip.
==== Log checksum 96F4E6F2AC4417F778AFB9AE9E82E399AE181EA37C67E2A56D7A42B5F5C06259 ====

CD 4 - Symphonies Nos. 7 & 8 (1997, Arte Nova # 74321 56341 2)

Symphony No.7 In A Major Op.92:
1. I. Poco Sostenuto - Vivace
2. II. Allegretto
3. III. Presto
4. IV. Allegro Con Brio
Symphony No. 8 In F Major Op.93:
5. I. Allegro Vivace E Con Brio
6. II. Allegretto Scherzando
7. III. Tempo Di Menuetto
8. IV. Allegro Vivace

LOG EAC CD4

Exact Audio Copy V1.0 beta 3 from 29. August 2011
EAC extraction logfile from 15. July 2013, 15:56
Zinman, TonhalleOrch. Zürich / Beethoven: Symphonien Nr. 7 & 8
Used drive : PIONEER BD-RW BDR-206 Adapter: 0 ID: 2
Read mode : Secure
Utilize accurate stream : Yes
Defeat audio cache : Yes
Make use of C2 pointers : No
Read offset correction : 667
Overread into Lead-In and Lead-Out : No
Fill up missing offset samples with silence : Yes
Delete leading and trailing silent blocks : No
Null samples used in CRC calculations : Yes
Used interface : Native Win32 interface for Win NT & 2000
Used output format : User Defined Encoder
Selected bitrate : 1024 kBit/s
Quality : High
Add ID3 tag : Yes
Command line compressor : C:\Program Files\FLAC\flac.exe
Additional command line options : -5 -T "Artist=%artist%" -T "Title=%title%" -T "Album=%albumtitle%" -T "Date=%year%" -T "Tracknumber=%tracknr%" -T "Genre=%genre%" %source% -o %dest%
TOC of the extracted CD
Track | Start | Length | Start sector | End sector
---------------------------------------------------------
1 | 0:00.32 | 13:24.33 | 32 | 60364
2 | 13:24.65 | 7:29.30 | 60365 | 94069
3 | 20:54.20 | 8:02.37 | 94070 | 130256
4 | 28:56.57 | 8:36.50 | 130257 | 169006
5 | 37:33.32 | 8:13.38 | 169007 | 206019
6 | 45:46.70 | 3:50.62 | 206020 | 223331
7 | 49:37.57 | 4:16.13 | 223332 | 242544
8 | 53:53.70 | 6:40.12 | 242545 | 272556
Range status and errors
Selected range
Filename F:\=== VINYL RIPS ===\=== EAC===\X FRESH RIP\Beethoven- Zinman, TonhalleOrch. Zürich - Symphonien Nr. 7 & 8.wav
Peak level 99.8 %
Extraction speed 7.5 X
Range quality 99.9 %
Copy CRC 3EC617EA
Copy OK
No errors occurred
AccurateRip summary
Track 1 accurately ripped (confidence 9) [E983FD01] (AR v2)
Track 2 accurately ripped (confidence 9) [644B778A] (AR v2)
Track 3 accurately ripped (confidence 9) [45F7DB0E] (AR v2)
Track 4 accurately ripped (confidence 9) [F4932C65] (AR v2)
Track 5 accurately ripped (confidence 8) [DBEECCE3] (AR v2)
Track 6 accurately ripped (confidence 9) [89B01233] (AR v2)
Track 7 accurately ripped (confidence 9) [C8A67BCE] (AR v2)
Track 8 accurately ripped (confidence 8) [E1222815] (AR v2)
All tracks accurately ripped
End of status report
---- CUETools DB Plugin V2.1.3
[CTDB TOCID: KIN1Wzi0zomxvMrc4zUYXRlJ1w8-] found, Submit result: discs with pregaps not supported in this protocol version
[a1d61c05] (137/137) Differs in 0 samples @
You can use CUETools to repair this rip.
==== Log checksum 8574FF05AF9C22A6B8F1F7AE0F7AF5EE55815A08B82370F9ADEB7E739A0A0483 ====

CD 5 - Symphoy No. 9 (1998, Arte Nova # 74321 65411 2)

Symphony No. 9 In D Minor Op.125:
1. I. Allegro Ma Non Troppo
2. II. Molto Vivace
3. III. Adagio Molto E Cantabile
4. IV. Presto
5. V. Allegro Assai Vivace Marcia-End
6. VI. Allegro Assai Vivace Marcia-End Beethoven's Original
Исполнители:
Fritz Naf - chorus master
Ruth Ziesak - soprano
Brigit Remmert - alto
Steve Davislim - tenor
Detlef Roth - bass
Schweizer Kammerchor

LOG EAC CD5

Exact Audio Copy V1.0 beta 3 from 29. August 2011
EAC extraction logfile from 15. July 2013, 16:08
Zinman, TonhalleOrch. Zürich / Beethoven: Symphonie Nr. 9
Used drive : PIONEER BD-RW BDR-206 Adapter: 0 ID: 2
Read mode : Secure
Utilize accurate stream : Yes
Defeat audio cache : Yes
Make use of C2 pointers : No
Read offset correction : 667
Overread into Lead-In and Lead-Out : No
Fill up missing offset samples with silence : Yes
Delete leading and trailing silent blocks : No
Null samples used in CRC calculations : Yes
Used interface : Native Win32 interface for Win NT & 2000
Used output format : User Defined Encoder
Selected bitrate : 1024 kBit/s
Quality : High
Add ID3 tag : Yes
Command line compressor : C:\Program Files\FLAC\flac.exe
Additional command line options : -5 -T "Artist=%artist%" -T "Title=%title%" -T "Album=%albumtitle%" -T "Date=%year%" -T "Tracknumber=%tracknr%" -T "Genre=%genre%" %source% -o %dest%
TOC of the extracted CD
Track | Start | Length | Start sector | End sector
---------------------------------------------------------
1 | 0:00.32 | 13:42.63 | 32 | 61744
2 | 13:43.20 | 12:15.12 | 61745 | 116881
3 | 25:58.32 | 11:32.00 | 116882 | 168781
4 | 37:30.32 | 8:29.63 | 168782 | 207019
5 | 46:00.20 | 13:20.62 | 207020 | 267081
6 | 59:21.07 | 13:13.38 | 267082 | 326594
Range status and errors
Selected range
Filename F:\=== VINYL RIPS ===\=== EAC===\X FRESH RIP\Beethoven- Zinman, TonhalleOrch. Zürich - Symphonie Nr. 9.wav
Peak level 98.4 %
Extraction speed 8.1 X
Range quality 100.0 %
Copy CRC 438713EE
Copy OK
No errors occurred
AccurateRip summary
Track 1 accurately ripped (confidence 11) [FD67B308] (AR v2)
Track 2 accurately ripped (confidence 11) [44B840DA] (AR v2)
Track 3 accurately ripped (confidence 11) [DD10F7D2] (AR v2)
Track 4 accurately ripped (confidence 10) [D7A0EA6D] (AR v2)
Track 5 accurately ripped (confidence 11) [319580C0] (AR v2)
Track 6 accurately ripped (confidence 11) [4B695EB4] (AR v2)
All tracks accurately ripped
End of status report
---- CUETools DB Plugin V2.1.3
[CTDB TOCID: PSf44TKBvPNnLYCYpXcGSjxBo2g-] found, Submit result: discs with pregaps not supported in this protocol version
[f8da2687] (131/131) Differs in 17604 samples @00:00:12-00:00:42
You can use CUETools to repair this rip.
==== Log checksum 7CFC08985385E6A4FEC53E805640593208089FF2994E3C8A2D18CFAD6142F51B ====



Показать сообщения:    

Текущее время: 05-Дек 17:30

Часовой пояс: UTC + 3


Вы не можете начинать темы
Вы не можете отвечать на сообщения
Вы не можете редактировать свои сообщения
Вы не можете удалять свои сообщения
Вы не можете голосовать в опросах
Вы не можете прикреплять файлы к сообщениям
Вы не можете скачивать файлы