Безумные господа / Безумные хозяева / Les maitres fous / The Mad Masters (Жан Руш / Jean Rouch) [1955, Франция, документальный, DVDRip] + Sub Rus + Original Fre


Статистика раздачи [Обновить пиров]
Размер:  341 MB   |    Зарегистрирован:  10 месяцев 1 день   |    Скачан:  0 раз

Полного источника не было: Никогда

Личеров:  6  [  0 KB/s  ]   Подробная статистика пиров
 
   
 
 
 

[Цитировать]

Безумные господа / Безумные хозяева / Les maitres fous / The Mad Masters
Страна: Франция
Жанр: документальный
Год выпуска: 1955
Продолжительность: 00:27:57
Перевод: субтитры
Cубтитры: русский
Оригинальная аудиодорожка: французский
Режиссер: Жан Руш / Jean Rouch
В ролях: Жан Руш/Jean Rouch
Описание: Спокойный закадровый голос повествует об африканском городе Аккре, его жителях и культе Хаука. В кадре же нет никакого спокойствия – дикая церемония, жестокий ритуал, буйный праздник. Несколько жителей Аккры собираются вместе, чтобы войти в транс, нарушить табу или искупить то, что было нарушено, превратиться в Другого, в белого человека, в колонизатора с плюмажем на шлеме. Это мистерия удивительного накала и потрясающего освобождения чувств – первобытный театр, одержимые актёры, пьеса в пространстве делирия, внутри которого бредят о других странах и племенах, других обычаях и ритуалах.
Ещё один из поразительных примеров документального кинематографа, мастером которого был Жан Руш.
Доп. информация: Перевод титров фильма осуществлен студентами кафедры философии и социологии культуры Удмуртского государственного университета. Редактор перевода – зав. каф. докт. филос. наук, профессор В. Л. Круткин, ре-тайминг и подготовка субтитров – alex-kin.
Файл взят с Карагарги – благодарим 54.
Предупреждение!
В фильме присутствуют сцены жестокости и насилия, а также действия, которые могут оцениваться зрителем как неприятные или даже травмирующие.

О фильме

"В. Л. Круткин Визуальная антропология и "Безумные господа" Жана Руша"
http://www.academia.edu/4242806/%D0%92%D0%B8%D0%B7%D1%83%D0%B0%D0%BB%D1%8C%D0%BD%...1%83%D1%88%D0%B0
Сэмпл: http://multi-up.com/1009893
Качество видео: DVDRip
Формат видео: AVI
Видео: XviD build 50 at 1504 kbps, 0.22 bit/pixel, 608x448 (1.36:1) at 25 fps
Аудио: AC3 Dolby Digital at 192 kbps, 2/0 (L,R) ch, 48 kHz

Субтитры

Формат субтитров: softsub (SRT)
Фрагмент субтитров:
253
00:19:53,140 --> 00:19:54,340
Здесь в центре вопрос о собаке.
254
00:19:57,472 --> 00:19:58,926
Все члены Хаука собрались,
255
00:19:59,794 --> 00:20:02,286
чтобы принести в жертву собаку
и затем съесть.
256
00:20:02,766 --> 00:20:04,797
Капитан хочет
принести в жертву собаку,
257
00:20:07,637 --> 00:20:09,243
но в итоге Muykayla-kiri,
по прозвищу Белый Священник,
258
00:20:10,087 --> 00:20:12,880
сам забивает собаку,
чтобы избежать неприятностей.
259
00:20:16,715 --> 00:20:20,958
Губернатор и Генерал призывают:
«Сохраняйте спокойствие!»
260
00:20:23,044 --> 00:20:24,687
Но как только горло было перерезано,
261
00:20:24,807 --> 00:20:28,859
люди Хаука бросаются вперед,
чтобы пить кровь прямо из горла
262
00:20:29,560 --> 00:20:31,740
и облизывать жертвенный камень.
263
00:20:45,251 --> 00:20:47,865
Мадам Доктор
начинает разделывать собаку.
264
00:20:50,186 --> 00:20:58,253
Капитан направляет посыльных,
требует провести новое совещание,
265
00:20:58,962 --> 00:21:00,053
чтобы решить,
266
00:21:00,173 --> 00:21:02,484
будет ли собака съедена сырой
или ее следует приготовить.
267
00:21:04,897 --> 00:21:06,456
«Никто опять меня не слушает!», -
говорит Капитан.
268
00:21:06,576 --> 00:21:07,847
«Всегда одно и то же!»
269
00:21:08,701 --> 00:21:12,453
Он оскорбляет своих солдат,
но все равно пытается
270
00:21:12,573 --> 00:21:13,885
провести совещание.
271
00:21:17,341 --> 00:21:18,825
Капитан говорит Губернатору:
272
00:21:18,945 --> 00:21:23,718
«Ее надо сварить, чтобы отвезти долю
и тем, кто не смог приехать сюда».
273
00:21:28,911 --> 00:21:31,058
Maimota, водитель грузовика,
предлагает
274
00:21:31,178 --> 00:21:35,059
свои услуги, но начальник говорит:
«Хаука, посмотрите!
275
00:21:35,649 --> 00:21:38,460
Я научу вас, как разделывать собаку
перед тем как варить».

MediaInfo

Формат : AVI
Формат/Информация : Audio Video Interleave
Размер файла : 341 Мбайт
Продолжительность : 27 м.
Общий поток : 1707 Кбит/сек
Программа кодирования : Nandub v1.0rc2
Библиотека кодирования : Nandub build 1852/release
Видео
Идентификатор : 0
Формат : MPEG-4 Visual
Профиль формата : Advanced Simple@L5
Параметр BVOP формата : 2
Параметр QPel формата : Нет
Параметр GMC формата : Без точки перехода
Параметр матрицы формата : Default (MPEG)
Идентификатор кодека : XVID
Идентификатор кодека/Подсказка : XviD
Продолжительность : 27 м.
Битрейт : 1505 Кбит/сек
Ширина : 608 пикс.
Высота : 448 пикс.
Соотношение сторон : 4:3
Частота кадров : 25,000 кадр/сек
Цветовое пространство : YUV
Подвыборка цветности : 4:2:0
Битовая глубина : 8 бит
Тип развёртки : Прогрессивная
Метод сжатия : С потерями
Бит/(Пиксели*Кадры) : 0.221
Размер потока : 301 Мбайт (88%)
Библиотека кодирования : XviD 1.2.1 (UTC 2008-12-04)
Аудио
Идентификатор : 1
Формат : AC-3
Формат/Информация : Audio Coding 3
Расширение режима : CM (complete main)
Идентификатор кодека : 2000
Продолжительность : 27 м.
Вид битрейта : Постоянный
Битрейт : 192 Кбит/сек
Канал(ы) : 2 канала(ов)
Расположение каналов : Front: L R
Частота : 48,0 КГц
Битовая глубина : 16 бит
Метод сжатия : С потерями
Размер потока : 38,4 Мбайт (11%)
Выравнивание : Разделение по промежуткам
Продолжительность промежутка : 40 мс. (1,00 видеокадр)
Время предзагрузки промежутка : 500 ms

Скриншот c названием фильма

Скриншоты




[teatrix.ru].t19385.torrent 
Торрент: Зарегистрирован [ 2016-03-18 12:47 ] · 5A555146462FB54158A53E64E83A574CB01015A3

Скачать .torrent

Скачать

54 KB

Статус: проверено
Скачан: 0 раз
Размер: 341 MB
terms.php



Быстрый ответ

Имя:

      
Для отправки сообщений необходимо включить JavaScript
Показать сообщения:    

Текущее время: 19-Янв 22:17

Часовой пояс: UTC + 3


Вы можете начинать темы
Вы можете отвечать на сообщения
Вы не можете редактировать свои сообщения
Вы не можете удалять свои сообщения
Вы не можете голосовать в опросах
Вы не можете прикреплять файлы к сообщениям
Вы можете скачивать файлы