(Classical) [LP] [24/48] С. Рахманинов - Симфонические танцы (ГАСО СССР, дирижер Евгений Светланов) - Из Сокровищницы Мирового Исполнительского Искусства - 1973 (1980), FLAC (tracks+.cue)


Статистика раздачи [Обновить пиров]
Размер:  410 MB   |    Зарегистрирован:  8 месяцев 17 дней   |    Скачан:  0 раз

Полного источника не было: Никогда

 
   
 
 
 

[Цитировать]

Дирижер Евгений Светланов - Из Сокровищницы Мирового Исполнительского Искусства
Жанр: Classical
Носитель: LP
Год выпуска: 1973 (1980)
Лейбл: Melodya
Страна-производитель: USSR
Аудио кодек: FLAC
Тип рипа: tracks+.cue
Формат записи: 32/192
Формат раздачи: 24/48
Продолжительность: 37.20 min
Треклист:
С.Рахманинов (1873-1943)
Симфонические танцы
для большого симфонического оркестра, соч.45
01. Non allegro
02. Andante con moto
03. Lento assai
Государственный академический симфонический
оркестр СССР
Источник оцифровки: автором раздачи
Код класса состояния винила: NM
Устройство воспроизведения: Электроника ЭП 017С
Головка звукоснимателя: Audio-Technica AT95
Предварительный усилитель: Бриг-001
АЦП: VIA HD audio device
Программа-оцифровщик: Izotope RX III Advanced
Обработка: Manual

Спектр+АЧХ+Уровень записи


DR=13

foobar2000 1.1.10 / Dynamic Range Meter 1.1.1
log date: 2014-11-04 16:45:41
--------------------------------------------------------------------------------
Analyzed: Евгений Светланов / Симфонические танцы
--------------------------------------------------------------------------------
DR Peak RMS Duration Track
--------------------------------------------------------------------------------
DR14 -1.95 dB -23.02 dB 12:41 ?-Non allegro
DR12 -2.90 dB -22.16 dB 10:38 ?-Andante con moto
DR14 -2.17 dB -20.82 dB 14:00 ?-Lento assai
--------------------------------------------------------------------------------
Number of tracks: 3
Official DR value: DR13
Samplerate: 48000 Hz
Channels: 2
Bits per sample: 24
Bitrate: 1540 kbps
Codec: FLAC
================================================================================

Back & Inner & Disc





[teatrix.ru].t19389.torrent 
Торрент: Зарегистрирован [ 2016-03-18 12:37 ] · 27DB361463D371E1A8DFB660231C0F70135E1F3B

Скачать .torrent

Скачать

17 KB

Статус: проверено
Скачан: 0 раз
Размер: 410 MB
terms.php



Быстрый ответ

Имя:

      
Для отправки сообщений необходимо включить JavaScript
Показать сообщения:    

Текущее время: 05-Дек 01:24

Часовой пояс: UTC + 3


Вы можете начинать темы
Вы можете отвечать на сообщения
Вы не можете редактировать свои сообщения
Вы не можете удалять свои сообщения
Вы не можете голосовать в опросах
Вы не можете прикреплять файлы к сообщениям
Вы можете скачивать файлы