Маравилья / Maravilla (Хуан Пабло Кадавейра / Juan Pablo Cadaveira) [2014, Документальный фильм, SATRip]


Статистика раздачи [Обновить пиров]
Размер:  812 MB   |    Зарегистрирован:  8 месяцев 19 дней   |    Скачан:  0 раз

Полного источника не было: Никогда

 
   
 
 
 

[Цитировать]

Маравилья / Maravilla
Дата/Год выпуска: 2014
Страна: Аргентина - США - Испания
Жанр: Документальный фильм
Продолжительность: 01:17:01
Перевод: Субтитры
Русские субтитры: есть
Формат субтитров: hardsub (неотключаемые)
Оригинальная аудиодорожка: испанский
Режиссер: Хуан Пабло Кадавейра / Juan Pablo Cadaveira
Описание: Полное название: Maravilla, La Película / Маравилья, документальный фильм
Альтернативное название:
Maravilla, Un Luchador Dentro y Fuera del Ring / Maravilla, A Fighter Inside and Outside the Ring / Маравилья, боец на ринге и вне его

Документальный фильм о знаменитом аргентинском боксере Серхио Мартинесе

SATRip от : Твид
Доп. информация: Любезно предоставлено клубом Fenix
Сэмпл: http://multi-up.com/1010822
качество: SATRip
формат: AVI
Видео: XviD, 1340 kb/s, 640x528, 0.159 bits/pixel
Аудио: 0x0055(MP3) ID'd as MPEG-1 Layer 3, 128 kb/s (2/ch, stereo) CBR, 48000 Hz - Испанский

MediaInfo

Общее
Полное имя : D:\FILMS\Maravil'ja.SAT-rip.by.Твид.fenixclub.avi
Формат : AVI
Формат/Информация : Audio Video Interleave
Размер файла : 812 Мбайт
Продолжительность : 1 ч. 17 м.
Общий поток : 1474 Кбит/сек
Видео
Идентификатор : 0
Формат : MPEG-4 Visual
Профиль формата : Advanced Simple@L5
Параметр BVOP формата : 2
Параметр QPel формата : Нет
Параметр GMC формата : Без точки перехода
Параметр матрицы формата : Default (H.263)
Идентификатор кодека : XVID
Идентификатор кодека/Подсказка : XviD
Продолжительность : 1 ч. 17 м.
Битрейт : 1337 Кбит/сек
Ширина : 640 пикселей
Высота : 528 пикселей
Соотношение сторон : 1,212
Частота кадров : 25,000 кадров/сек
Цветовое пространство : YUV
Субдискретизация насыщенности : 4:2:0
Битовая глубина : 8 бит
Тип развёртки : Прогрессивная
Метод сжатия : С потерями
Бит/(Пиксели*Кадры) : 0.158
Размер потока : 736 Мбайт (91%)
Библиотека кодирования : XviD 1.1.2 (UTC 2006-11-01)
Аудио
Идентификатор : 1
Формат : MPEG Audio
Версия формата : Version 1
Профиль формата : Layer 3
Режим : Joint stereo
Идентификатор кодека : 55
Идентификатор кодека/Подсказка : MP3
Продолжительность : 1 ч. 17 м.
Вид битрейта : Постоянный
Битрейт : 128 Кбит/сек
Каналы : 2 канала
Частота : 48,0 КГц
Метод сжатия : С потерями
Размер потока : 70,5 Мбайт (9%)
Выравнивание : Разделение по промежуткам
Продолжительность промежутка : 40 мс. (1,00 видеокадр)
Время предзагрузки промежутка : 500 мс.

Скриншоты

[teatrix.ru].t19392.torrent 
Торрент: Зарегистрирован [ 2016-03-18 12:39 ] · EE792AA576CA9511685AB19C265FC6F54B5D8D8F

Скачать .torrent

Скачать

16 KB

Статус: проверено
Скачан: 0 раз
Размер: 812 MB
terms.php



Быстрый ответ

Имя:

      
Для отправки сообщений необходимо включить JavaScript
Показать сообщения:    

Текущее время: 07-Дек 11:37

Часовой пояс: UTC + 3


Вы можете начинать темы
Вы можете отвечать на сообщения
Вы не можете редактировать свои сообщения
Вы не можете удалять свои сообщения
Вы не можете голосовать в опросах
Вы не можете прикреплять файлы к сообщениям
Вы можете скачивать файлы