(Classical Crossover, Vocal) Filippa Giordano - Il Rosso Amore - 2002, FLAC (tracks+.cue), lossless


 

[Цитировать]

Filippa Giordano - Il Rosso Amore
Жанр: Classical Crossover, Vocal
Страна-производитель диска: Италия
Год издания диска: 2002
Издатель (лейбл): Sugar
Номер по каталогу: 0927 45588 2
Аудиокодек: FLAC
Тип рипа: tracks+.cue
Битрейт аудио: lossless
Продолжительность: 56:49
Источник (релизер): Swof (what)
Наличие сканов в содержимом раздачи: сетевые
Треклист:
01. Che Luce Sei (4:31)
02. Heaven Knows (Amarti Si) (4:14)
03. Il Rosso Amore (4:35)
04. Lonely Heart (4:28)
05. Io Aspetto Te (3:46)
06. Dove Andiamo Noi (4:32)
07. L'Alba Verra (4:28)
08. Plaisir d'Amour (3:21)
09. Un Bel Di Vedremo (From Madama Butterfly) (3:49)
10. Coro A Bocca Chiusa (From Madama Butterfly) (3:02)
11. Va' Pensiero (From Nabucco) (3:29)
12. La Barcarolle (From Les Contes d'Hoffmann) (2:57)
13. Ballata Per Giulietta (5:25)
14. Amarti Si (4:12)

Лог создания рипа

Exact Audio Copy V1.0 beta 3 from 29. August 2011
EAC extraction logfile from 7. October 2014, 1:44
Filippa Giordano / Il Rosso Amore
Used drive : ATAPI iHBS212 2 Adapter: 4 ID: 0
Read mode : Secure
Utilize accurate stream : Yes
Defeat audio cache : Yes
Make use of C2 pointers : No
Read offset correction : 6
Overread into Lead-In and Lead-Out : No
Fill up missing offset samples with silence : Yes
Delete leading and trailing silent blocks : No
Null samples used in CRC calculations : Yes
Used interface : Native Win32 interface for Win NT & 2000
Gap handling : Appended to previous track
Used output format : User Defined Encoder
Selected bitrate : 1024 kBit/s
Quality : High
Add ID3 tag : No
Command line compressor : C:\Program Files (x86)\Exact Audio Copy\FLAC\FLAC.EXE
Additional command line options : -8 -V -T "ARTIST=%artist%" -T "TITLE=%title%" -T "ALBUM=%albumtitle%" -T "DATE=%year%" -T "TRACKNUMBER=%tracknr%" -T "GENRE=%genre%" -T "PERFORMER=%albuminterpret%" -T "COMPOSER=%composer%" %haslyrics%--tag-from-file=LYRICS="%lyricsfile%"%haslyrics% -T "ALBUMARTIST=%albumartist%" -T "DISCNUMBER=%cdnumber%" -T "TOTALDISCS=%totalcds%" -T "TOTALTRACKS=%numtracks%" -T "COMMENT=%comment%" %source% -o %dest%
TOC of the extracted CD
Track | Start | Length | Start sector | End sector
---------------------------------------------------------
1 | 0:00.00 | 4:31.00 | 0 | 20324
2 | 4:31.00 | 4:13.50 | 20325 | 39349
3 | 8:44.50 | 4:35.00 | 39350 | 59974
4 | 13:19.50 | 4:27.50 | 59975 | 80049
5 | 17:47.25 | 3:45.50 | 80050 | 96974
6 | 21:33.00 | 4:32.25 | 96975 | 117399
7 | 26:05.25 | 4:27.50 | 117400 | 137474
8 | 30:33.00 | 3:21.25 | 137475 | 152574
9 | 33:54.25 | 3:48.50 | 152575 | 169724
10 | 37:43.00 | 3:02.00 | 169725 | 183374
11 | 40:45.00 | 3:28.62 | 183375 | 199036
12 | 44:13.62 | 2:57.13 | 199037 | 212324
13 | 47:11.00 | 5:25.00 | 212325 | 236699
14 | 52:36.00 | 4:12.00 | 236700 | 255599
Track 1
Filename C:\Users\HexCore\Desktop\Filippa Giordano\01 - Che Luce Sei.wav
Pre-gap length 0:00:02.00
Peak level 99.4 %
Extraction speed 2.0 X
Track quality 100.0 %
Test CRC 69D930E1
Copy CRC 69D930E1
Accurately ripped (confidence 4) [AFA954F6] (AR v1)
Copy OK
Track 2
Filename C:\Users\HexCore\Desktop\Filippa Giordano\02 - Heaven Knows (Amarti Sì).wav
Peak level 98.3 %
Extraction speed 2.2 X
Track quality 100.0 %
Test CRC ADFA620C
Copy CRC ADFA620C
Accurately ripped (confidence 4) [4422133C] (AR v1)
Copy OK
Track 3
Filename C:\Users\HexCore\Desktop\Filippa Giordano\03 - Il Rosso Amore.wav
Pre-gap length 0:00:00.84
Peak level 99.4 %
Extraction speed 2.4 X
Track quality 100.0 %
Test CRC 19A531C3
Copy CRC 19A531C3
Accurately ripped (confidence 4) [722B4E29] (AR v1)
Copy OK
Track 4
Filename C:\Users\HexCore\Desktop\Filippa Giordano\04 - Lonely Heart.wav
Pre-gap length 0:00:01.00
Peak level 91.9 %
Extraction speed 2.6 X
Track quality 100.0 %
Test CRC B0C37D5B
Copy CRC B0C37D5B
Accurately ripped (confidence 4) [DCD61F1C] (AR v1)
Copy OK
Track 5
Filename C:\Users\HexCore\Desktop\Filippa Giordano\05 - Io Aspetto Te.wav
Pre-gap length 0:00:01.66
Peak level 99.4 %
Extraction speed 2.7 X
Track quality 100.0 %
Test CRC 81CFD561
Copy CRC 81CFD561
Accurately ripped (confidence 4) [CB4E9668] (AR v1)
Copy OK
Track 6
Filename C:\Users\HexCore\Desktop\Filippa Giordano\06 - Dove Andiamo Noi.wav
Pre-gap length 0:00:00.66
Peak level 99.4 %
Extraction speed 3.0 X
Track quality 100.0 %
Test CRC 68EC3909
Copy CRC 68EC3909
Accurately ripped (confidence 4) [FD9F6EE4] (AR v1)
Copy OK
Track 7
Filename C:\Users\HexCore\Desktop\Filippa Giordano\07 - L'alba Verrà.wav
Pre-gap length 0:00:01.00
Peak level 99.4 %
Extraction speed 3.1 X
Track quality 100.0 %
Test CRC FC4E9025
Copy CRC FC4E9025
Accurately ripped (confidence 4) [7B50E5D4] (AR v1)
Copy OK
Track 8
Filename C:\Users\HexCore\Desktop\Filippa Giordano\08 - Plaisir D'amour.wav
Pre-gap length 0:00:01.33
Peak level 99.4 %
Extraction speed 3.1 X
Track quality 100.0 %
Test CRC 7AC73BF6
Copy CRC 7AC73BF6
Accurately ripped (confidence 4) [4FA1D4A0] (AR v1)
Copy OK
Track 9
Filename C:\Users\HexCore\Desktop\Filippa Giordano\09 - Un Bel Dì Vedremo (From Madam Butterfly).wav
Pre-gap length 0:00:01.00
Peak level 99.4 %
Extraction speed 3.3 X
Track quality 100.0 %
Test CRC 883565D1
Copy CRC 883565D1
Accurately ripped (confidence 4) [0E6D072D] (AR v1)
Copy OK
Track 10
Filename C:\Users\HexCore\Desktop\Filippa Giordano\10 - Coro A Bocca Chiusa (From Madam Butterfly).wav
Pre-gap length 0:00:00.66
Peak level 98.3 %
Extraction speed 3.3 X
Track quality 100.0 %
Test CRC 0C6F712F
Copy CRC 0C6F712F
Accurately ripped (confidence 4) [44D88536] (AR v1)
Copy OK
Track 11
Filename C:\Users\HexCore\Desktop\Filippa Giordano\11 - Va' Pensiero (From Nabucco).wav
Peak level 99.4 %
Extraction speed 2.5 X
Track quality 99.9 %
Test CRC 631DD140
Copy CRC 631DD140
Accurately ripped (confidence 4) [97F56BA4] (AR v1)
Copy OK
Track 12
Filename C:\Users\HexCore\Desktop\Filippa Giordano\12 - La Barcarolle (From Les contes d'Hoffmann).wav
Pre-gap length 0:00:00.82
Peak level 99.4 %
Extraction speed 3.5 X
Track quality 100.0 %
Test CRC CF73DF05
Copy CRC CF73DF05
Accurately ripped (confidence 4) [BB751A0C] (AR v1)
Copy OK
Track 13
Filename C:\Users\HexCore\Desktop\Filippa Giordano\13 - Ballata Per Giulietta.wav
Pre-gap length 0:00:01.50
Peak level 99.4 %
Extraction speed 3.1 X
Track quality 99.9 %
Test CRC C1C92688
Copy CRC C1C92688
Accurately ripped (confidence 4) [3E96E993] (AR v1)
Copy OK
Track 14
Filename C:\Users\HexCore\Desktop\Filippa Giordano\14 - Amarti Sì.wav
Pre-gap length 0:00:01.33
Peak level 99.4 %
Extraction speed 2.9 X
Track quality 99.9 %
Test CRC 30FC04AB
Copy CRC 30FC04AB
Accurately ripped (confidence 4) [21D43EF3] (AR v1)
Copy OK
All tracks accurately ripped
No errors occurred
End of status report
---- CUETools DB Plugin V2.1.3
[CTDB TOCID: 3KsenamJT.qibmki5ySfrqkEzjY-] found, Submit result: 3KsenamJT.qibmki5ySfrqkEzjY- has been confirmed
[fb7293d5] (3/3) Accurately ripped
==== Log checksum 50C19F8CE0711A84A0731BD7631F5F3470ACE0A76E59F77FD15C38A7FBD1CCEF ====

Содержание индексной карты (.CUE)

REM GENRE Classical
REM DATE 2002
REM DISCID C70D500E
REM COMMENT "ExactAudioCopy v1.0b3"
PERFORMER "Filippa Giordano"
TITLE "Il Rosso Amore"
FILE "01 - Che Luce Sei.wav" WAVE
TRACK 01 AUDIO
TITLE "Che Luce Sei"
PERFORMER "Filippa Giordano"
ISRC ITZ040200010
INDEX 01 00:00:00
FILE "02 - Heaven Knows (Amarti Si).wav" WAVE
TRACK 02 AUDIO
TITLE "Heaven Knows (Amarti Si)"
PERFORMER "Filippa Giordano"
ISRC ITZ040200008
INDEX 01 00:00:00
TRACK 03 AUDIO
TITLE "Il Rosso Amore"
PERFORMER "Filippa Giordano"
ISRC ITZ040200007
INDEX 00 04:12:62
FILE "03 - Il Rosso Amore.wav" WAVE
INDEX 01 00:00:00
TRACK 04 AUDIO
TITLE "Lonely Heart"
PERFORMER "Filippa Giordano"
ISRC ITZ040100740
INDEX 00 04:34:00
FILE "04 - Lonely Heart.wav" WAVE
INDEX 01 00:00:00
TRACK 05 AUDIO
TITLE "Io Aspetto Te"
PERFORMER "Filippa Giordano"
ISRC ITZ040200009
INDEX 00 04:26:00
FILE "05 - Io Aspetto Te.wav" WAVE
INDEX 01 00:00:00
TRACK 06 AUDIO
TITLE "Dove Andiamo Noi"
PERFORMER "Filippa Giordano"
ISRC ITZ040200012
INDEX 00 03:45:00
FILE "06 - Dove Andiamo Noi.wav" WAVE
INDEX 01 00:00:00
TRACK 07 AUDIO
TITLE "L'Alba Verra"
PERFORMER "Filippa Giordano"
ISRC ITZ040100791
INDEX 00 04:31:25
FILE "07 - L'Alba Verra.wav" WAVE
INDEX 01 00:00:00
TRACK 08 AUDIO
TITLE "Plaisir d'Amour"
PERFORMER "Filippa Giordano"
ISRC ITZ040200017
INDEX 00 04:26:25
FILE "08 - Plaisir d'Amour.wav" WAVE
INDEX 01 00:00:00
TRACK 09 AUDIO
TITLE "Un Bel Di Vedremo (From Madama Butterfly)"
PERFORMER "Filippa Giordano"
ISRC ITZ040200014
INDEX 00 03:20:25
FILE "09 - Un Bel Di Vedremo (From Madama Butterfly).wav" WAVE
INDEX 01 00:00:00
TRACK 10 AUDIO
TITLE "Coro A Bocca Chiusa (From Madama Butterfly)"
PERFORMER "Filippa Giordano"
ISRC ITZ040200013
INDEX 00 03:48:00
FILE "10 - Coro A Bocca Chiusa (From Madama Butterfly).wav" WAVE
INDEX 01 00:00:00
FILE "11 - Va' Pensiero (From Nabucco).wav" WAVE
TRACK 11 AUDIO
TITLE "Va' Pensiero (From Nabucco)"
PERFORMER "Filippa Giordano"
ISRC ITZ040200016
INDEX 01 00:00:00
TRACK 12 AUDIO
TITLE "La Barcarolle (From Les Contes d'Hoffmann)"
PERFORMER "Filippa Giordano"
ISRC ITZ040200015
INDEX 00 03:28:00
FILE "12 - La Barcarolle (From Les Contes d'Hoffmann).wav" WAVE
INDEX 01 00:00:00
TRACK 13 AUDIO
TITLE "Ballata Per Giulietta"
PERFORMER "Filippa Giordano"
ISRC ITZ040200011
INDEX 00 02:55:50
FILE "13 - Ballata Per Giulietta.wav" WAVE
INDEX 01 00:00:00
TRACK 14 AUDIO
TITLE "Amarti Si"
PERFORMER "Filippa Giordano"
ISRC ITZ040200006
INDEX 00 05:23:50
FILE "14 - Amarti Si.wav" WAVE
INDEX 01 00:00:00

Отчет CUETools

[CUETools log; Date: 04.11.2014 23:42:39; Version: 2.1.5]
[CTDB TOCID: 3KsenamJT.qibmki5ySfrqkEzjY-] found.
Track | CTDB Status
1 | (4/4) Accurately ripped
2 | (4/4) Accurately ripped
3 | (4/4) Accurately ripped
4 | (4/4) Accurately ripped
5 | (4/4) Accurately ripped
6 | (4/4) Accurately ripped
7 | (4/4) Accurately ripped
8 | (4/4) Accurately ripped
9 | (4/4) Accurately ripped
10 | (4/4) Accurately ripped
11 | (4/4) Accurately ripped
12 | (4/4) Accurately ripped
13 | (4/4) Accurately ripped
14 | (4/4) Accurately ripped
[AccurateRip ID: 001debb7-013ba5f0-c70d500e] found.
Track [ CRC | V2 ] Status
01 [afa954f6|89232da3] (04+00/22) Accurately ripped
02 [4422133c|70ec1d1b] (04+00/22) Accurately ripped
03 [722b4e29|f17b94d1] (04+00/22) Accurately ripped
04 [dcd61f1c|e8655012] (04+00/22) Accurately ripped
05 [cb4e9668|c2770517] (04+00/22) Accurately ripped
06 [fd9f6ee4|12859100] (04+00/22) Accurately ripped
07 [7b50e5d4|6147576e] (04+00/22) Accurately ripped
08 [4fa1d4a0|cb7435a3] (04+00/22) Accurately ripped
09 [0e6d072d|fcdd81d6] (04+00/22) Accurately ripped
10 [44d88536|2213d907] (04+00/22) Accurately ripped
11 [97f56ba4|bbc2dc61] (04+00/22) Accurately ripped
12 [bb751a0c|5b0db592] (04+00/22) Accurately ripped
13 [3e96e993|0760cd5b] (04+00/22) Accurately ripped
14 [21d43ef3|204514e0] (04+00/22) Accurately ripped
Offsetted by 646:
01 [e3fc1a1f] (08/22) Accurately ripped
02 [b4e2d089] (08/22) Accurately ripped
03 [4d6dfa0b] (08/22) Accurately ripped
04 [85405a74] (08/22) Accurately ripped
05 [08890423] (08/22) Accurately ripped
06 [eea0c183] (08/22) Accurately ripped
07 [c5b5acd4] (08/22) Accurately ripped
08 [215689b9] (08/22) Accurately ripped
09 [ebac1471] (08/22) Accurately ripped
10 [ef3a5ea9] (08/22) Accurately ripped
11 [90afce66] (08/22) Accurately ripped
12 [319afc26] (08/22) Accurately ripped
13 [cd6fc7a3] (08/22) Accurately ripped
14 [87e98301] (08/22) Accurately ripped
Track Peak [ CRC32 ] [W/O NULL] [ LOG ]
-- 99,4 [DBB6C0B6] [FBFB455D]
01 99,4 [69D930E1] [12FFEA60] CRC32
02 98,3 [ADFA620C] [46913534] CRC32
03 99,4 [19A531C3] [3F8C8D36] CRC32
04 91,9 [B0C37D5B] [177CD8A8] CRC32
05 99,4 [81CFD561] [F2935BC3] CRC32
06 99,4 [68EC3909] [33F18DE8] CRC32
07 99,4 [FC4E9025] [06B10575] CRC32
08 99,4 [7AC73BF6] [21DE99D1] CRC32
09 99,4 [883565D1] [CF6FA918] CRC32
10 98,3 [0C6F712F] [FB0C96A3] CRC32
11 99,4 [631DD140] [2BA0B899] CRC32
12 99,4 [CF73DF05] [2EC116CD] CRC32
13 99,4 [C1C92688] [4495D327] CRC32
14 99,4 [30FC04AB] [8C1A1D30] CRC32

Об альбоме (сборнике)

The third album by soprano Filippa Giordano, Italy's premier female contemporary-classical crossover artist, is a lush 16-track collection entitled Il Rosso Amore (Warner Music (UK) 0927 45740 2 LC4281, 2002). It is released on the success of the singer's stunning debut self-titled recording (review) and follow-up album Passioni (review). As with her former recordings, the new album contains a variety of classical and contemporary tracks sung in English and Italian. The artist's music will appeal to Sarah Brightman (Classics review), Emma Shapplin (reviews) and Izzy (Ascolta review) enthusiasts.
Mixing contemporary compositions with reworked opera arias, Filippa Giordano's Il Rosso Amore continues the direction established by her eponymous debut disc. Giordano hails from Palermo, Italy and grew up amid a highly musical family--her brother is a conductor, her parents both classical singers.
As a young woman she was drawn to the spontaneity of the performances of pop idols as Madonna, George Michael and Whitney Houston. Her solution has been to develop a fusion of classical and commercial styles, mixing orchestral arrangements with pop production techniques--like Sasha Lazard (review)--on this new release offering four opera-based pieces and twelve new songs.
Pitched between Broadway and Hollywood, with a dash of the pop diva histrionics of Whitney Houston, this is pure melodrama. Mentor and celebrated Italian film composer, Ennio Morricone contributes two tracks from the film Aida degli Alberi (2001), "I'abla verrа" and the brief Disney style number" Il canto della terra." "Up to the Light" is a bombastic showstopper featuring stratospheric vocals and blockbuster production values, so that against these Puccini's "Un bel dм" and "Coro a bocca chiusa" from Madam Butterfly sound decidedly out of place, despite being garbed in luxurious 21st-century studio clothes.
Filippa Giordano's new album is certain to delight her existing fans and bring her many new ones. Clearly worth a trans-Atlantic journey, the album is a must listen!



Показать сообщения:    

Текущее время: 10-Дек 13:51

Часовой пояс: UTC + 3


Вы не можете начинать темы
Вы не можете отвечать на сообщения
Вы не можете редактировать свои сообщения
Вы не можете удалять свои сообщения
Вы не можете голосовать в опросах
Вы не можете прикреплять файлы к сообщениям
Вы не можете скачивать файлы