(Classical) French Flute Chamber Music: Tournier, Schmitt, Pierne, Francaix, Roussel - Mirage Quintet - 2009, FLAC (image+.cue) lossless


 

[Цитировать]

French Flute Chamber Music: Tournier, Schmitt, Pierné, Françaix, Roussel - Mirage Quintet
Жанр: Classical
Год издания диска: 2009
Издатель (лейбл): Naxos
Номер по каталогу: 8.570444
Дата записи: 2007
Аудиокодек: FLAC
Тип рипа: image+.cue
Битрейт аудио: lossless
Продолжительность: 63:53
Источник: собственный рип
Наличие сканов в содержимом раздачи: да
Треклист:
Marcel Tournier (1879-1951)
[1]-[4] Suite, Op.34
Florent Schmitt (1870-1958)
[5]-[8] Suite en rocaille, Op.84
Gabriel Pierné (1863-1937)
[9] Variations libres et finale, Op.51
Jean Françaix (1912-1997)
[10]-[13] Quintette
Albert Roussel (1869-1937)
[14]-[16] Sérénade, Op.30
Исполнители:
Mirage Quintet
Robert Aitken flute
Erica Goodman harp
Jacques Israelivitch violin
Teng Li viola
Winona Zelenka cello

Лог создания рипа

Exact Audio Copy V1.0 beta 3 from 29. August 2011
EAC extraction logfile from 7. August 2014, 1:13
Mirage Quintet / French Flute Chamber Music
Used drive : HL-DT-STDVDRAM GU70N Adapter: 0 ID: 0
Read mode : Secure
Utilize accurate stream : Yes
Defeat audio cache : Yes
Make use of C2 pointers : No
Read offset correction : 48
Overread into Lead-In and Lead-Out : No
Fill up missing offset samples with silence : Yes
Delete leading and trailing silent blocks : No
Null samples used in CRC calculations : Yes
Used interface : Native Win32 interface for Win NT & 2000
Used output format : User Defined Encoder
Selected bitrate : 128 kBit/s
Quality : High
Add ID3 tag : No
Command line compressor : C:\Program Files (x86)\Exact Audio Copy\Flac\flac.exe
Additional command line options : -V -8 -T "Date=%year%" -T "Genre=%genre%" %source%
TOC of the extracted CD
Track | Start | Length | Start sector | End sector
---------------------------------------------------------
1 | 0:00.00 | 3:29.09 | 0 | 15683
2 | 3:29.09 | 2:04.55 | 15684 | 25038
3 | 5:33.64 | 3:24.37 | 25039 | 40375
4 | 8:58.26 | 4:53.68 | 40376 | 62418
5 | 13:52.19 | 3:39.65 | 62419 | 78908
6 | 17:32.09 | 3:50.12 | 78909 | 96170
7 | 21:22.21 | 3:39.58 | 96171 | 112653
8 | 25:02.04 | 2:36.03 | 112654 | 124356
9 | 27:38.07 | 10:57.56 | 124357 | 173687
10 | 38:35.63 | 2:30.12 | 173688 | 184949
11 | 41:06.00 | 2:31.36 | 184950 | 196310
12 | 43:37.36 | 2:43.17 | 196311 | 208552
13 | 46:20.53 | 1:37.23 | 208553 | 215850
14 | 47:58.01 | 4:31.54 | 215851 | 236229
15 | 52:29.55 | 6:55.08 | 236230 | 267362
16 | 59:24.63 | 4:26.28 | 267363 | 287340
Range status and errors
Selected range
Filename C:\temp\Naxos_8.570444 - French Flute Chamber Music\French Flute Chamber Music.wav
Peak level 93.5 %
Extraction speed 2.1 X
Range quality 100.0 %
Test CRC E6F0049A
Copy CRC E6F0049A
Copy OK
No errors occurred
AccurateRip summary
Track 1 accurately ripped (confidence 1) [42B7FD3E] (AR v2)
Track 2 accurately ripped (confidence 1) [8EE552F4] (AR v2)
Track 3 accurately ripped (confidence 1) [1EF70513] (AR v2)
Track 4 accurately ripped (confidence 1) [4BB1E15A] (AR v2)
Track 5 accurately ripped (confidence 1) [366DBC1C] (AR v2)
Track 6 accurately ripped (confidence 1) [45FF6A7E] (AR v2)
Track 7 accurately ripped (confidence 1) [4EE05C99] (AR v2)
Track 8 accurately ripped (confidence 1) [8F456807] (AR v2)
Track 9 accurately ripped (confidence 1) [D8511852] (AR v2)
Track 10 accurately ripped (confidence 1) [6BC2175E] (AR v2)
Track 11 accurately ripped (confidence 1) [D6834431] (AR v2)
Track 12 accurately ripped (confidence 1) [4C428563] (AR v2)
Track 13 accurately ripped (confidence 1) [E08B36CD] (AR v2)
Track 14 accurately ripped (confidence 1) [4252148E] (AR v2)
Track 15 accurately ripped (confidence 1) [3EE44B40] (AR v2)
Track 16 accurately ripped (confidence 1) [E2C00D87] (AR v2)
All tracks accurately ripped
End of status report
==== Log checksum 60BEE7FA01FA536A4C9C31B3322A6FED17EE89D1D911E767A68912562F60EBF2 ====



Показать сообщения:    

Текущее время: 09-Дек 20:30

Часовой пояс: UTC + 3


Вы не можете начинать темы
Вы не можете отвечать на сообщения
Вы не можете редактировать свои сообщения
Вы не можете удалять свои сообщения
Вы не можете голосовать в опросах
Вы не можете прикреплять файлы к сообщениям
Вы не можете скачивать файлы