Кит на стеклянной волне / Kujira no Chouyaku / Glassy Ocean (Тамура Сигэру) [Movie] [без хардсаба] [RUS(int),JAP+SUB] [1998 г., фэнтези, сюрреализм, DVDRip]


 

[Цитировать]

Кит на стеклянной волнеKujira no Chouyaku
Glassy Ocean
クジラの跳躍
Страна: Япония
Год выпуска: 1998
Жанр: фэнтези, сюрреализм
Тип: Movie
Продолжительность: ~23 мин.
Режиссер: Тамура Сигэру
Автор оригинала: Тамура Сигэру
-Информационные ссылки: AniDB || MyAnimeList || World Art-Описание: "Стеклянный океан" - это 22 минуты другого мира, по-настоящему другого. И сюжет, и подобранные под него изобразительные средства, и хорошо соответствующая музыка создают шикарный эффект чего-то другого, иного, не нашего.
Действие происходит в другом времени, но не раньше или позже, а медленнее. Пока маленький пассажир теплохода замечает, что рядом, возможно, плывет кит, жители Медленного мира собираются посмотреть на эту гигантскую рыбину. За несколько секунд прыжка из воды они успевают нарисовать картину, выпить рюмочку, рассказать одну-другую историю, вспомнить молодость, да много чего еще.
Вокруг кита, на стеклянной поверхности океана (а как же иначе, ведь в медленном мире и вода течет медленнее, а значит по ней можно ходить), собралась разнообразная публика посмотреть на это представление морского театра.
Замечательный визуальный эффект достигается в том числе тем, что фон-океан выполнен в 3D, тогда как все герои нарисованы вручную.
Сказочно!
© aniview
-Качество: DVDRip
Тип видео: без хардсаба, без линковки
Энкод: fong
Формат: MKV
-Дорожки и внешние подключаемые файлы:
  • Видео: x264, Hi10p, 836×480, 23.976 кадр/сек, ~700 кбит/сек
  • Аудио #1 (int): Rus, AC3, 2 ch, 48 кГц, 192 кбит/сек - Sad_Kit (мужская, одноголосая)
  • Аудио #2 (int): Rus, AAC, 2 ch, 48 кГц, 192 кбит/сек - Shina (женская, одноголосая)
  • Аудио #3 (int): Jap, AC3, 2 ch, 48 кГц, 192 кбит/сек
  • Субтитры #1 (int): Eng, ASS - JR
  • Субтитры #2 (ext): Rus, ASS - kostaLom-

    Скриншоты



    -Отличия от других раздачhttp://teatrix.ru/viewtopic.php?t=409609
  • Отсутствие хардсаба
  • Наличие озвучки-

    Подробные тех.данные

    General
    Unique ID                                : 236922229468797835104117571899788432984 (0xB23D8FC67DE52D868A6D7EDBDBF51658)
    Complete name                            : ***\Kujira no Chouyaku\Kujira no Chouyaku (Glassy Ocean) [fong].mkv
    Format                                   : Matroska
    Format version                           : Version 2
    File size                                : 207 MiB
    Duration                                 : 22mn 35s
    Overall bit rate                         : 1 279 Kbps
    Encoded date                             : UTC 2014-11-22 13:24:29
    Writing application                      : mkvmerge v5.8.0 ('No Sleep / Pillow') built on Sep  2 2012 15:37:04
    Writing library                          : libebml v1.2.3 + libmatroska v1.3.0
    Attachment                               : Yes / Yes / Yes / Yes
    [br]
    Video
    ID                                       : 1
    Format                                   : AVC
    Format/Info                              : Advanced Video Codec
    Format profile                           : High 10@L3.2
    Format settings, CABAC                   : Yes
    Format settings, ReFrames                : 12 frames
    Codec ID                                 : V_MPEG4/ISO/AVC
    Duration                                 : 22mn 35s
    Width                                    : 836 pixels
    Height                                   : 480 pixels
    Display aspect ratio                     : 16:9
    Frame rate mode                          : Constant
    Frame rate                               : 23.976 fps
    Color space                              : YUV
    Chroma subsampling                       : 4:2:0
    Bit depth                                : 10 bits
    Scan type                                : Progressive
    Writing library                          : x264 core 133 r2334kMod a3ac64b
    Encoding settings                        : cabac=1 / ref=12 / deblock=1:0:0 / analyse=0x3:0x133 / me=umh / subme=9 / psy=1 / fade_compensate=0.00 / psy_rd=0.30:0.00 / mixed_ref=1 / me_range=24 / chroma_me=1 / trellis=0 / 8x8dct=1 / cqm=0 / deadzone=21,11 / fast_pskip=0 / chroma_qp_offset=-2 / threads=12 / lookahead_threads=2 / sliced_threads=0 / nr=0 / decimate=0 / interlaced=0 / bluray_compat=0 / constrained_intra=0 / bframes=8 / b_pyramid=2 / b_adapt=2 / b_bias=0 / direct=3 / weightb=1 / open_gop=0 / weightp=2 / keyint=250 / keyint_min=1 / scenecut=40 / intra_refresh=0 / rc_lookahead=60 / rc=crf / mbtree=1 / crf=16.0000 / qcomp=0.60 / qpmin=0 / qpmax=81 / qpstep=4 / ip_ratio=1.40 / aq=1:0.60
    Language                                 : Japanese
    Default                                  : Yes
    Forced                                   : No
    Matrix coefficients                      : BT.601
    [br]
    Audio #1
    ID                                       : 2
    Format                                   : AC-3
    Format/Info                              : Audio Coding 3
    Mode extension                           : CM (complete main)
    Format settings, Endianness              : Big
    Codec ID                                 : A_AC3
    Duration                                 : 22mn 35s
    Bit rate mode                            : Constant
    Bit rate                                 : 192 Kbps
    Channel(s)                               : 2 channels
    Channel positions                        : Front: L R
    Sampling rate                            : 48.0 KHz
    Bit depth                                : 16 bits
    Compression mode                         : Lossy
    Stream size                              : 31.0 MiB (15%)
    Title                                    : Sad_Kit
    Language                                 : Russian
    Default                                  : Yes
    Forced                                   : No
    [br]
    Audio #2
    ID                                       : 3
    Format                                   : AAC
    Format/Info                              : Advanced Audio Codec
    Format profile                           : LC
    Codec ID                                 : A_AAC
    Duration                                 : 22mn 35s
    Channel(s)                               : 2 channels
    Channel positions                        : Front: L R
    Sampling rate                            : 48.0 KHz
    Compression mode                         : Lossy
    Delay relative to video                  : 9ms
    Title                                    : Shina
    Language                                 : Russian
    Default                                  : No
    Forced                                   : No
    [br]
    Audio #3
    ID                                       : 4
    Format                                   : AC-3
    Format/Info                              : Audio Coding 3
    Mode extension                           : CM (complete main)
    Format settings, Endianness              : Big
    Codec ID                                 : A_AC3
    Duration                                 : 22mn 35s
    Bit rate mode                            : Constant
    Bit rate                                 : 192 Kbps
    Channel(s)                               : 2 channels
    Channel positions                        : Front: L R
    Sampling rate                            : 48.0 KHz
    Bit depth                                : 16 bits
    Compression mode                         : Lossy
    Stream size                              : 31.0 MiB (15%)
    Title                                    : Original
    Language                                 : Japanese
    Default                                  : No
    Forced                                   : No
    [br]
    Text
    ID                                       : 5
    Format                                   : ASS
    Codec ID                                 : S_TEXT/ASS
    Codec ID/Info                            : Advanced Sub Station Alpha
    Compression mode                         : Lossless
    Title                                    : JR
    Language                                 : English
    Default                                  : No
    Forced                                   : No
    [br]
    Menu
    00:00:00.000                             : en:Title
    00:03:00.013                             : en:Song of Water People
    00:05:00.008                             : en:Imagery of Ruins
    00:08:24.379                             : en:Old Man's Dream
    00:09:42.207                             : en:Whale's Appearance
    00:11:18.344                             : en:Afternoon, Gathering of Spectators
    00:13:23.761                             : en:Whale in the Sky
    00:14:35.208                             : en:Magic Orchestra
    00:17:51.570                             : en:Flying Water Ball
    00:20:50.332                             : en:Ending
    -Доп. информация:
    • Чтобы смотреть с субтитрами, необходимо из папки "Subs [kostaLom]" скопировать файлы в папку с видео, большинство плееров подгрузит их автоматически при открытии видео, при этом необходимо переключиться с русской дорожки на японскую.
    • Чтобы смотреть 10-битное видео (10bit), необходимо, исходя из ваших предпочтений используемого проигрывателя, воспользоваться этой инструкцией.



  • Показать сообщения:    

    Текущее время: 08-Дек 10:56

    Часовой пояс: UTC + 3


    Вы не можете начинать темы
    Вы не можете отвечать на сообщения
    Вы не можете редактировать свои сообщения
    Вы не можете удалять свои сообщения
    Вы не можете голосовать в опросах
    Вы не можете прикреплять файлы к сообщениям
    Вы не можете скачивать файлы