(Baroque serenata) Stradella - Lo Schiavo Liberato ; O di Cocito Oscure Deita (Roberta Invernizzi, Alessandro Stradella Consort, Estevan Velardi) - 1995, APE (image+.cue) lossless


 

[Цитировать]

Stradella - Lo Schiavo Liberato

Жанр: Baroque serenata
Страна-производитель диска: Made in Italy
Год издания диска: 1995
Издатель (лейбл): Bongiovanni
Номер по каталогу: GB 2164-2
Дата записи: 1993
Аудиокодек: APE
Тип рипа: image+.cue
Битрейт аудио: lossless
Продолжительность: 66'02
Источник: релизер
сайт-источник/ник/другое: Денис Куталёв
Наличие сканов в содержимом раздачи: да
Треклист:

скрытый текст

O di Cocito Oscure Deità
1-6
Lo Schiavo Liberato
Parte prima
7-25
Parte seconda
26-44
Исполнители:

скрытый текст

Alessandro Stradella
O di Cocito Oscure Deità
Prologo a 4 voci e strumenti (Giovan Filippo Apolloni, per la commedia di Filippo Acciaiuoli "Il Girello" con musica di Jacopo Melani). 1668.
Roberta Invernizzi, soprano (Proserpina)
Riccardo Ristori, bass (Plutone)
Silvia Piccolo, soprano (Vendetta)
Mario Nuvoli, tenor (Inganno)
ALESSANDRO STRADELLA CONSORT
Dir. ESTEVAN VELARDI
Lo Schiavo Liberato (Non ti riveggio ancora)
Serenata a 4 voci e strumenti (Sebastiano Baldini). 1674
Roberta Invernizzi, soprano
Marco Lazzara, countertenor
Mario Nuvoli, tenor
Riccardo Ristori, bass
ALESSANDRO STRADELLA CONSORT
Dir. ESTEVAN VELARDI
WORLD PREMIERE RECORDING
Recorded Oct. 21-23 and December 9-12, 1993 in Sori (Genova)
Audio CD (April 18, 1995)

Лог создания рипа

Exact Audio Copy V1.0 beta 1 from 15. November 2010
EAC extraction logfile from 20. July 2012, 12:38
Stradella / Stradella - Lo Schiavo Liberato etc - Velardi
Used drive : ASUS DRW-1608P Adapter: 0 ID: 0
Read mode : Secure
Utilize accurate stream : Yes
Defeat audio cache : Yes
Make use of C2 pointers : No
Read offset correction : 48
Overread into Lead-In and Lead-Out : No
Fill up missing offset samples with silence : Yes
Delete leading and trailing silent blocks : No
Null samples used in CRC calculations : Yes
Used interface : Installed external ASPI interface
Used output format : Monkey's Audio Lossless Encoder v3.99 DLL
Sample format : High Lossless Compression
TOC of the extracted CD
Track | Start | Length | Start sector | End sector
---------------------------------------------------------
1 | 0:00.00 | 2:29.10 | 0 | 11184
2 | 2:29.10 | 0:38.35 | 11185 | 14069
3 | 3:07.45 | 1:10.05 | 14070 | 19324
4 | 4:17.50 | 1:29.45 | 19325 | 26044
5 | 5:47.20 | 0:37.35 | 26045 | 28854
6 | 6:24.55 | 1:58.60 | 28855 | 37764
7 | 8:23.40 | 3:48.07 | 37765 | 54871
8 | 12:11.47 | 0:28.60 | 54872 | 57031
9 | 12:40.32 | 2:27.43 | 57032 | 68099
10 | 15:08.00 | 0:18.57 | 68100 | 69506
11 | 15:26.57 | 1:29.53 | 69507 | 76234
12 | 16:56.35 | 0:45.47 | 76235 | 79656
13 | 17:42.07 | 3:46.18 | 79657 | 96624
14 | 21:28.25 | 0:58.30 | 96625 | 101004
15 | 22:26.55 | 1:58.20 | 101005 | 109874
16 | 24:25.00 | 1:04.62 | 109875 | 114736
17 | 25:29.62 | 0:33.63 | 114737 | 117274
18 | 26:03.50 | 2:39.25 | 117275 | 129224
19 | 28:43.00 | 1:11.02 | 129225 | 134551
20 | 29:54.02 | 1:41.33 | 134552 | 142159
21 | 31:35.35 | 0:41.30 | 142160 | 145264
22 | 32:16.65 | 3:33.05 | 145265 | 161244
23 | 35:49.70 | 1:03.52 | 161245 | 166021
24 | 36:53.47 | 0:47.38 | 166022 | 169584
25 | 37:41.10 | 1:51.45 | 169585 | 177954
26 | 39:32.55 | 0:42.32 | 177955 | 181136
27 | 40:15.12 | 0:55.20 | 181137 | 185281
28 | 41:10.32 | 1:21.38 | 185282 | 191394
29 | 42:31.70 | 0:43.17 | 191395 | 194636
30 | 43:15.12 | 1:41.25 | 194637 | 202236
31 | 44:56.37 | 2:01.45 | 202237 | 211356
32 | 46:58.07 | 2:03.53 | 211357 | 220634
33 | 49:01.60 | 1:09.22 | 220635 | 225831
34 | 50:11.07 | 0:18.10 | 225832 | 227191
35 | 50:29.17 | 1:24.13 | 227192 | 233504
36 | 51:53.30 | 0:53.20 | 233505 | 237499
37 | 52:46.50 | 0:52.72 | 237500 | 241471
38 | 53:39.47 | 0:53.55 | 241472 | 245501
39 | 54:33.27 | 1:02.13 | 245502 | 250164
40 | 55:35.40 | 2:30.65 | 250165 | 261479
41 | 58:06.30 | 1:28.22 | 261480 | 268101
42 | 59:34.52 | 3:02.68 | 268102 | 281819
43 | 62:37.45 | 0:47.27 | 281820 | 285371
44 | 63:24.72 | 2:56.45 | 285372 | 298616
Range status and errors
Selected range
Filename D:\Downloads\Stradella - Lo Schiavo Liberato etc - Velardi.ape
Peak level 99.9 %
Extraction speed 0.3 X
Range quality 100.0 %
Copy CRC 4FCAD0A6
Copy OK
No errors occurred
AccurateRip summary
Track 1 not present in database
Track 2 not present in database
Track 3 not present in database
Track 4 not present in database
Track 5 not present in database
Track 6 not present in database
Track 7 not present in database
Track 8 not present in database
Track 9 not present in database
Track 10 not present in database
Track 11 not present in database
Track 12 not present in database
Track 13 not present in database
Track 14 not present in database
Track 15 not present in database
Track 16 not present in database
Track 17 not present in database
Track 18 not present in database
Track 19 not present in database
Track 20 not present in database
Track 21 not present in database
Track 22 not present in database
Track 23 not present in database
Track 24 not present in database
Track 25 not present in database
Track 26 not present in database
Track 27 not present in database
Track 28 not present in database
Track 29 not present in database
Track 30 not present in database
Track 31 not present in database
Track 32 not present in database
Track 33 not present in database
Track 34 not present in database
Track 35 not present in database
Track 36 not present in database
Track 37 not present in database
Track 38 not present in database
Track 39 not present in database
Track 40 not present in database
Track 41 not present in database
Track 42 not present in database
Track 43 not present in database
Track 44 not present in database
None of the tracks are present in the AccurateRip database
End of status report



Показать сообщения:    

Текущее время: 05-Дек 15:31

Часовой пояс: UTC + 3


Вы не можете начинать темы
Вы не можете отвечать на сообщения
Вы не можете редактировать свои сообщения
Вы не можете удалять свои сообщения
Вы не можете голосовать в опросах
Вы не можете прикреплять файлы к сообщениям
Вы не можете скачивать файлы