Забытые дневники любви / Yomanei Haahava Haavudim (Ясмин Новак / Yasmine Novak) [2011, документальный, Холокост, TVRip]


Статистика раздачи [Обновить пиров]
Размер:  617 MB   |    Зарегистрирован:  8 месяцев 20 дней   |    Скачан:  0 раз

Полного источника не было: Никогда

 
   
 
 
 

[Цитировать]

Забытые дневники любви / Yomanei Haahava Haavudim
Дата/Год выпуска: 2011
Страна: Израиль
Жанр: документальный, Холокост
Продолжительность: 00:52:41
Перевод: Студийный (одноголосый закадровый)
Русские субтитры: нет
Оригинальная аудиодорожка: нет
Режиссер: Ясмин Новак / Yasmine Novak
Описание: Элис и Берни, молодой влюбленной паре пришлось расстаться во время Второй Мировой Войны, чтобы уйти в подполье. В ночь расставания они пообещали друг другу писать дневники. Это был последний раз, когда Элис видела Берни. Берни пропал во время войны и Элис смирившись с потерей решили выйти замуж. В день свадьбы незнакомая женщина принесла Элис посылку в которой были дневник Берни. Элис так и не решилась открыть его... 60 лет спустя, ее дочь, Шуля, уговаривать мать прочесть дневник и начать путешествие, чтобы узнать, что же случилось с ее первой любовью.
Огромное спасибо abraka за данную запись.
Сэмпл: http://multi-up.com/1011346
качество: TVRip
формат: AVI
Видео: DivX 5 704x528 1500 Kbps 25.00fps [Vid]
Аудио: MPEG Audio Layer 3 48000Hz stereo 128kbps [Aud]

MediaInfo

ormat                         : AVI
Format/Info : Audio Video Interleave
File size : 617 MiB
Duration : 52mn 41s
Overall bit rate : 1 638 Kbps
Video
ID : 0
Format : MPEG-4 Visual
Format settings, BVOP : 1
Format settings, QPel : No
Format settings, GMC : No warppoints
Format settings, Matrix : Default (H.263)
Codec ID : DX50
Codec ID/Hint : DivX 5
Duration : 52mn 41s
Bit rate : 1 500 Kbps
Width : 704 pixels
Height : 528 pixels
Display aspect ratio : 4:3
Frame rate : 25.000 fps
Color space : YUV
Chroma subsampling : 4:2:0
Bit depth : 8 bits
Scan type : Progressive
Compression mode : Lossy
Bits/(Pixel*Frame) : 0.161
Stream size : 565 MiB (92%)
Writing library : DivX 6.8.5 (UTC 2009-08-20)
Audio
ID : 1
Format : MPEG Audio
Format version : Version 1
Format profile : Layer 3
Mode : Joint stereo
Mode extension : MS Stereo
Codec ID : 55
Codec ID/Hint : MP3
Duration : 52mn 41s
Bit rate mode : Constant
Bit rate : 128 Kbps
Channel(s) : 2 channels
Sampling rate : 48.0 KHz
Compression mode : Lossy
Stream size : 48.2 MiB (8%)
Alignment : Split accross interleaves
Interleave, duration : 40 ms (1.00 video frame)
Interleave, preload duration : 500 ms

Скриншоты



[/URL]
[teatrix.ru].t19401.torrent 
Торрент: Зарегистрирован [ 2016-03-18 12:36 ] · F9556A090708AE806D399A8B5207F3278A37196C

Скачать .torrent

Скачать

13 KB

Статус: проверено
Скачан: 0 раз
Размер: 617 MB
terms.php



Быстрый ответ

Имя:

      
Для отправки сообщений необходимо включить JavaScript
Показать сообщения:    

Текущее время: 08-Дек 03:08

Часовой пояс: UTC + 3


Вы можете начинать темы
Вы можете отвечать на сообщения
Вы не можете редактировать свои сообщения
Вы не можете удалять свои сообщения
Вы не можете голосовать в опросах
Вы не можете прикреплять файлы к сообщениям
Вы можете скачивать файлы