(Baroque opera arias and suites) Handel - Alcina, Arias and Suites / Гендель - Альцина, арии и сюиты (Christine Schafer, Berliner Barock Solisten, Rainer Kussmaul) - 2009, FLAC (image+.cue) lossless


 

[Цитировать]

George Frideric Handel - Alcina, Arias and Suites

Жанр: Baroque opera arias and suites
Страна-производитель диска: Made in Germany
Год издания диска: 2009
Издатель (лейбл): Deutschlandradio / Avi-Service for music, Cologne/Germany
Номер по каталогу: LC 15080
Дата записи: 2009
Аудиокодек: FLAC
Тип рипа: image+.cue
Битрейт аудио: lossless
Продолжительность: 73'54
Источник: релизер
сайт-источник/ник/другое: Odeon
Наличие сканов в содержимом раздачи: да
Треклист:

скрытый текст

01. Overture [0:03:23.48]
02. Di cor mio [0:06:03.28]
03. Musette [0:01:50.20]
04. Menuet [0:00:51.47]
05. Ma quando tornerai [0:04:27.61]
06. Sinfonia atto terzo [0:00:44.09]
07. Numi, che intendo - Ah mio cor [0:13:06.25]
08. Gavotte - Sarabende - Gavotte da capo [0:03:23.52]
09. Menuet [0:01:30.28]
10. Gavotte [0:00:36.72]
11. Tamburin [0:00:50.63]
12. Ah Ruggiero crudel [0:02:22.49]
13. Ombre pallide [0:04:28.52]
14. Entree des Songes agreables [0:02:25.02]
15. Si non quella [0:06:46.67]
16. Entree des Songes funestes [0:01:52.61]
17. Entree des Songes agreables effrayes ... [0:02:28.47]
18. Mi restano le lagrime [0:06:39.29]
19. Entree [0:02:19.06]
20. Credete al mio dolore [0:07:36.35]
Исполнители:

скрытый текст

George Frideric Handel (1685-1759)
Alcina Arias and Suites
Christine Schäfer - soprano
Berliner Barock Solisten [on period instruments]
Rainer Kussmaul - leader
Audio CD (May 12, 2009)

Лог создания рипа

Exact Audio Copy V1.0 beta 3 from 29. August 2011
EAC extraction logfile from 3. October 2014, 12:10
Christine Schäfer / Handel - 'Alcina'-Arias and Suites - Christine Schäfer, Berliner Barock Solisten
Used drive : TSSTcorpCDDVDW SH-222BB Adapter: 2 ID: 1
Read mode : Secure
Utilize accurate stream : Yes
Defeat audio cache : Yes
Make use of C2 pointers : No
Read offset correction : 6
Overread into Lead-In and Lead-Out : No
Fill up missing offset samples with silence : Yes
Delete leading and trailing silent blocks : No
Null samples used in CRC calculations : Yes
Used interface : Native Win32 interface for Win NT & 2000
Used output format : User Defined Encoder
Selected bitrate : 896 kBit/s
Quality : High
Add ID3 tag : No
Command line compressor : C:\Program Files\Exact Audio Copy\FLAC\FLAC.EXE
Additional command line options : -8 -V -T "TITLE=%title%" -T "ARTIST=%artist%" -T "ALBUMARTIST=%albumartist%" -T "ALBUM=%albumtitle%" -T "DATE=%year%" -T "TRACKNUMBER=%tracknr%" -T "TRACKTOTAL=%numtracks%" -T "GENRE=%genre%" -T "COMMENT=%comment%" -T "PERFORMER=%albuminterpret%" -T "COMPOSER=%composer%" %source% -o %dest%
TOC of the extracted CD
Track | Start | Length | Start sector | End sector
---------------------------------------------------------
1 | 0:00.00 | 3:23.48 | 0 | 15272
2 | 3:23.48 | 6:03.28 | 15273 | 42525
3 | 9:27.01 | 1:50.20 | 42526 | 50795
4 | 11:17.21 | 0:51.47 | 50796 | 54667
5 | 12:08.68 | 4:27.61 | 54668 | 74753
6 | 16:36.54 | 0:44.09 | 74754 | 78062
7 | 17:20.63 | 13:06.25 | 78063 | 137037
8 | 30:27.13 | 3:23.52 | 137038 | 152314
9 | 33:50.65 | 1:30.28 | 152315 | 159092
10 | 35:21.18 | 0:36.72 | 159093 | 161864
11 | 35:58.15 | 0:50.63 | 161865 | 165677
12 | 36:49.03 | 2:22.49 | 165678 | 176376
13 | 39:11.52 | 4:28.52 | 176377 | 196528
14 | 43:40.29 | 2:25.02 | 196529 | 207405
15 | 46:05.31 | 6:46.67 | 207406 | 237922
16 | 52:52.23 | 1:52.61 | 237923 | 246383
17 | 54:45.09 | 2:28.47 | 246384 | 257530
18 | 57:13.56 | 6:39.29 | 257531 | 287484
19 | 63:53.10 | 2:19.06 | 287485 | 297915
20 | 66:12.16 | 7:36.35 | 297916 | 332150
Range status and errors
Selected range
Filename G:\Ripped general\[7754] Handel – 'Alcina'-Arias and Suites – Christine Schäfer, Berliner Barock Solisten\Handel - 'Alcina'-Arias and Suites - Christine Schäfer, Berliner Barock Solisten.wav
Peak level 99.8 %
Extraction speed 7.2 X
Range quality 100.0 %
Test CRC D5517894
Copy CRC D5517894
Copy OK
No errors occurred
AccurateRip summary
Track 1 accurately ripped (confidence 4) [FA1334C1] (AR v2)
Track 2 accurately ripped (confidence 4) [A9EC7DC7] (AR v2)
Track 3 accurately ripped (confidence 4) [1D55D761] (AR v2)
Track 4 accurately ripped (confidence 4) [4CC84233] (AR v2)
Track 5 accurately ripped (confidence 4) [50F991C3] (AR v2)
Track 6 accurately ripped (confidence 4) [22AF178E] (AR v2)
Track 7 accurately ripped (confidence 4) [1EA95B41] (AR v2)
Track 8 accurately ripped (confidence 4) [ED6C16DA] (AR v2)
Track 9 accurately ripped (confidence 4) [41825C18] (AR v2)
Track 10 accurately ripped (confidence 4) [E315D7D0] (AR v2)
Track 11 accurately ripped (confidence 4) [EC228400] (AR v2)
Track 12 accurately ripped (confidence 4) [1AFC3B6E] (AR v2)
Track 13 accurately ripped (confidence 4) [07AF2A07] (AR v2)
Track 14 accurately ripped (confidence 4) [25E1087C] (AR v2)
Track 15 accurately ripped (confidence 4) [2D13F1D2] (AR v2)
Track 16 accurately ripped (confidence 4) [051BA461] (AR v2)
Track 17 accurately ripped (confidence 4) [680CE81A] (AR v2)
Track 18 accurately ripped (confidence 4) [28D3F317] (AR v2)
Track 19 accurately ripped (confidence 4) [58A00EB2] (AR v2)
Track 20 accurately ripped (confidence 4) [C62A043C] (AR v2)
All tracks accurately ripped
End of status report
==== Log checksum A400A567070849F87006DFD43C9DBCBEBD2



Показать сообщения:    

Текущее время: 07-Дек 00:55

Часовой пояс: UTC + 3


Вы не можете начинать темы
Вы не можете отвечать на сообщения
Вы не можете редактировать свои сообщения
Вы не можете удалять свои сообщения
Вы не можете голосовать в опросах
Вы не можете прикреплять файлы к сообщениям
Вы не можете скачивать файлы