(Classical) Das Glogauer Liederbuch - Sabine Lutzenberger, Martin Hummel, Marc Lewon, Ensemble Dulce Melos - 2012, FLAC (image+.cue) lossless


 

[Цитировать]

Das Glogauer Liederbuch - Sabine Lutzenberger, Martin Hummel, Marc Lewon, Ensemble Dulce Melos
Жанр: Classical
Год издания диска: 2012
Издатель (лейбл): Naxos
Номер по каталогу: 8.572576
Дата записи: 2010
Аудиокодек: FLAC
Тип рипа: image+.cue
Битрейт аудио: lossless
Продолжительность: 78:17
Источник: собственный рип
Наличие сканов в содержимом раздачи: да
Треклист:
Das Glogauer Liederbuch
Songs, Comic Tales and Tails
[1]-[3] I. Christ ist erstanden
[4] II. Der ratten schwanz
[5] III. In præclare Barbaræ/O wie gern und doch entbern
[6]-[7] IV. Es solt ein man/All voll
[8]-[10] V. Der morgenstern/Ich sach eins mals/Die nacht
[11]-[12] VI. Der seiden schwanz/Zu aller zeit
[13] VII. Elende du hast
[14]-[22] VIII. O rosa bella
[23] IX. Ich bins erfreut/Die libe
[24]-[25] X. Der pfauen schwanz
[26] XI. In feuers hitz/Ach reine zart/Mole gravati criminum
[27] XII. Der entrepris
[28]-[29] XIII. Lætare, Germania/Elslein, liebstes Elselein
[30]-[31] XIV. Auf rief ein hübsches freuelein/Zenner, greiner
[32]-[33] XV. Groß senen/Die welt, die hat einen tummen sin
[34]-[35] XVI. Die katzenpfote/[untitled]
[36] XVII. Nu bitten wir
[37] XVIII. Der vöglein art
[38] XIX. Die eselskrone
[39]-[41] XX. Tärste ich mit libe/Ach got/Der wächter
Исполнители:
Sabine Lutzenberger soprano
Martin Hummel baritone
Marc Lewon lute
Ensemble Dulce Melos

Лог создания рипа

Exact Audio Copy V1.0 beta 3 from 29. August 2011
EAC extraction logfile from 2. November 2014, 0:39
Sabine Lutzenberger, Martin Hummel, Marc Lewon, Ensemble Dulce Melos / Das Glogauer Liederbuch
Used drive : HL-DT-STDVDRAM GU70N Adapter: 0 ID: 0
Read mode : Secure
Utilize accurate stream : Yes
Defeat audio cache : Yes
Make use of C2 pointers : No
Read offset correction : 48
Overread into Lead-In and Lead-Out : No
Fill up missing offset samples with silence : Yes
Delete leading and trailing silent blocks : No
Null samples used in CRC calculations : Yes
Used interface : Native Win32 interface for Win NT & 2000
Used output format : User Defined Encoder
Selected bitrate : 128 kBit/s
Quality : High
Add ID3 tag : No
Command line compressor : C:\Program Files (x86)\Exact Audio Copy\Flac\flac.exe
Additional command line options : -V -8 -T "Date=%year%" -T "Genre=%genre%" %source%
TOC of the extracted CD
Track | Start | Length | Start sector | End sector
---------------------------------------------------------
1 | 0:00.00 | 0:36.20 | 0 | 2719
2 | 0:36.20 | 0:46.55 | 2720 | 6224
3 | 1:23.00 | 1:12.51 | 6225 | 11675
4 | 2:35.51 | 1:53.34 | 11676 | 20184
5 | 4:29.10 | 4:11.30 | 20185 | 39039
6 | 8:40.40 | 1:08.55 | 39040 | 44194
7 | 9:49.20 | 1:10.30 | 44195 | 49474
8 | 10:59.50 | 2:01.09 | 49475 | 58558
9 | 13:00.59 | 2:48.69 | 58559 | 71227
10 | 15:49.53 | 2:41.51 | 71228 | 83353
11 | 18:31.29 | 1:08.44 | 83354 | 88497
12 | 19:39.73 | 3:03.50 | 88498 | 102272
13 | 22:43.48 | 2:54.55 | 102273 | 115377
14 | 25:38.28 | 1:56.35 | 115378 | 124112
15 | 27:34.63 | 1:49.58 | 124113 | 132345
16 | 29:24.46 | 1:37.33 | 132346 | 139653
17 | 31:02.04 | 1:29.69 | 139654 | 146397
18 | 32:31.73 | 1:32.07 | 146398 | 153304
19 | 34:04.05 | 1:45.49 | 153305 | 161228
20 | 35:49.54 | 1:34.36 | 161229 | 168314
21 | 37:24.15 | 1:29.45 | 168315 | 175034
22 | 38:53.60 | 1:50.45 | 175035 | 183329
23 | 40:44.30 | 2:55.46 | 183330 | 196500
24 | 43:40.01 | 1:50.04 | 196501 | 204754
25 | 45:30.05 | 0:57.01 | 204755 | 209030
26 | 46:27.06 | 4:00.27 | 209031 | 227057
27 | 50:27.33 | 2:19.50 | 227058 | 237532
28 | 52:47.08 | 1:04.42 | 237533 | 242374
29 | 53:51.50 | 2:21.68 | 242375 | 253017
30 | 56:13.43 | 1:02.60 | 253018 | 257727
31 | 57:16.28 | 0:39.32 | 257728 | 260684
32 | 57:55.60 | 1:14.00 | 260685 | 266234
33 | 59:09.60 | 4:18.10 | 266235 | 285594
34 | 63:27.70 | 1:02.13 | 285595 | 290257
35 | 64:30.08 | 3:13.20 | 290258 | 304752
36 | 67:43.28 | 1:35.57 | 304753 | 311934
37 | 69:19.10 | 2:38.63 | 311935 | 323847
38 | 71:57.73 | 1:44.52 | 323848 | 331699
39 | 73:42.50 | 1:44.60 | 331700 | 339559
40 | 75:27.35 | 1:48.73 | 339560 | 347732
41 | 77:16.33 | 0:58.42 | 347733 | 352124
Range status and errors
Selected range
Filename C:\temp\Naxos_8.572576 - Das Glogauer Liederbuch\Das Glogauer Liederbuch.wav
Peak level 97.9 %
Extraction speed 2.3 X
Range quality 100.0 %
Test CRC F9118F60
Copy CRC F9118F60
Copy OK
No errors occurred
AccurateRip summary
Track 1 accurately ripped (confidence 3) [D8D34EF8] (AR v2)
Track 2 accurately ripped (confidence 3) [39F893E9] (AR v2)
Track 3 accurately ripped (confidence 3) [F7B9A86B] (AR v2)
Track 4 accurately ripped (confidence 3) [085265CF] (AR v2)
Track 5 accurately ripped (confidence 3) [5527734A] (AR v2)
Track 6 accurately ripped (confidence 3) [96CAABE6] (AR v2)
Track 7 accurately ripped (confidence 3) [CBF35198] (AR v2)
Track 8 accurately ripped (confidence 3) [8F9234B7] (AR v2)
Track 9 accurately ripped (confidence 3) [75078896] (AR v2)
Track 10 accurately ripped (confidence 3) [62516BB7] (AR v2)
Track 11 accurately ripped (confidence 3) [22AA05E6] (AR v2)
Track 12 accurately ripped (confidence 3) [E8E3B722] (AR v2)
Track 13 accurately ripped (confidence 3) [25396EFD] (AR v2)
Track 14 accurately ripped (confidence 3) [31FE245C] (AR v2)
Track 15 accurately ripped (confidence 3) [EDA24571] (AR v2)
Track 16 accurately ripped (confidence 3) [5E8FD676] (AR v2)
Track 17 accurately ripped (confidence 3) [4B3B5F74] (AR v2)
Track 18 accurately ripped (confidence 3) [874B7142] (AR v2)
Track 19 accurately ripped (confidence 3) [092B05F6] (AR v2)
Track 20 accurately ripped (confidence 3) [DCDC2610] (AR v2)
Track 21 accurately ripped (confidence 3) [EF500513] (AR v2)
Track 22 accurately ripped (confidence 3) [B8858839] (AR v2)
Track 23 accurately ripped (confidence 3) [82238DEB] (AR v2)
Track 24 accurately ripped (confidence 3) [98B813B2] (AR v2)
Track 25 accurately ripped (confidence 3) [47EEF828] (AR v2)
Track 26 accurately ripped (confidence 3) [44B6C41B] (AR v2)
Track 27 accurately ripped (confidence 3) [32C96225] (AR v2)
Track 28 accurately ripped (confidence 3) [D5CB4299] (AR v2)
Track 29 accurately ripped (confidence 3) [D450E20E] (AR v2)
Track 30 accurately ripped (confidence 3) [07CB8624] (AR v2)
Track 31 accurately ripped (confidence 3) [986A7A11] (AR v2)
Track 32 accurately ripped (confidence 3) [29DCAF8D] (AR v2)
Track 33 accurately ripped (confidence 3) [31CB247F] (AR v2)
Track 34 accurately ripped (confidence 3) [D5A9E57D] (AR v2)
Track 35 accurately ripped (confidence 3) [B166B648] (AR v2)
Track 36 accurately ripped (confidence 3) [5625DDCF] (AR v2)
Track 37 accurately ripped (confidence 3) [CF24509B] (AR v2)
Track 38 accurately ripped (confidence 3) [A623ECBF] (AR v2)
Track 39 accurately ripped (confidence 3) [446C34A3] (AR v2)
Track 40 accurately ripped (confidence 3) [0231D283] (AR v2)
Track 41 accurately ripped (confidence 3) [0549EEDF] (AR v2)
All tracks accurately ripped
End of status report
==== Log checksum BF135F89D18EDF23A428D6991F4B5D773E61D0D9188BB326DCF52FBFAD14B15D ====



Показать сообщения:    

Текущее время: 08-Дек 23:10

Часовой пояс: UTC + 3


Вы не можете начинать темы
Вы не можете отвечать на сообщения
Вы не можете редактировать свои сообщения
Вы не можете удалять свои сообщения
Вы не можете голосовать в опросах
Вы не можете прикреплять файлы к сообщениям
Вы не можете скачивать файлы