Музыка свободы: Краткая история рязанского метала (М. Полтавченко) [2014, Документальный, HDRip]


Статистика раздачи [Обновить пиров]
Размер:  1.94 GB   |    Зарегистрирован:  8 месяцев 15 дней   |    Скачан:  0 раз

Полного источника не было: Никогда

Личеров:  6  [  0 KB/s  ]   Подробная статистика пиров
 
   
 
 
 

[Цитировать]

Музыка свободы: Краткая история рязанского метала
Дата/Год выпуска: 2014
Страна: Россия
Жанр: Документальный
Продолжительность: 02:09:27
Перевод: Не требуется
Режиссер: М. Полтавченко
Описание: Документальный фильм о рязанской металлической сцене конца 80-х — середины 90-х годов ХХ века.
Фильм рассказывает о зарождении движения металлистов в Рязани и о группах, существовавших в этот период. Основной упор сделан на "тяжелые" команды, игравшие в стилях трэш и дэт-метал, грайндкор и панк-рок. Именно они были в те годы в центре всеобщего внимания и вызывали большой общественный резонанс. Герои фильма рассказывают об истории создания своих групп, творческом пути и о том, что было после.
Доп. информация: Совместный некоммерческий проект студий 36 Frames и Dark Cinema. Съёмки фильма продолжались более года — с февраля 2013 по апрель 2014 годов. Съёмочная бригада — Максим Полтавченко, Андрей Семизаров, Виталий Усачёв. Оффлайн премьера фильма состоялась 8 мая 2014 года в рок-клубе "Дом культуры". Постер к фильму — Екатерина Гамарина.
Сэмпл: https://yadi.sk/i/baF0pFWacYBEJ
качество: HDRip
формат: MP4
Видео: H264 (AVC), 1152x648, 16:9, 1988 Kbps, 25 fps
Аудио: AAC, 157 Kbps, 48 KHz, 2 ch

MediaInfo

Format                                   : MPEG-4
Format profile : Base Media / Version 2
Codec ID : mp42
File size : 1.94 GiB
Duration : 2h 9mn
Overall bit rate mode : Variable
Overall bit rate : 2 150 Kbps
Encoded date : UTC 2014-11-06 16:22:11
Tagged date : UTC 2014-11-06 16:24:15
©TIM : 00:00:00:00
©TSC : 25
©TSZ : 1
Video
ID : 1
Format : AVC
Format/Info : Advanced Video Codec
Format profile : High@L3.1
Format settings, CABAC : Yes
Format settings, ReFrames : 3 frames
Format settings, GOP : M=3, N=75
Codec ID : avc1
Codec ID/Info : Advanced Video Coding
Duration : 2h 9mn
Bit rate : 1 988 Kbps
Width : 1 152 pixels
Height : 648 pixels
Display aspect ratio : 16:9
Frame rate mode : Variable
Frame rate : 25.000 fps
Minimum frame rate : 25.000 fps
Maximum frame rate : 25.025 fps
Standard : PAL
Color space : YUV
Chroma subsampling : 4:2:0
Bit depth : 8 bits
Scan type : Progressive
Bits/(Pixel*Frame) : 0.107
Stream size : 1.80 GiB (92%)
Language : English
Encoded date : UTC 2014-11-06 16:22:11
Tagged date : UTC 2014-11-06 16:22:11
Color primaries : BT.709
Transfer characteristics : BT.709
Matrix coefficients : BT.709
mdhd_Duration : 7767880
Audio
ID : 2
Format : AAC
Format/Info : Advanced Audio Codec
Format profile : LC
Codec ID : 40
Duration : 2h 9mn
Source duration : 2h 9mn
Bit rate mode : Variable
Bit rate : 157 Kbps
Maximum bit rate : 257 Kbps
Channel(s) : 2 channels
Channel positions : Front: L R
Sampling rate : 48.0 KHz
Compression mode : Lossy
Stream size : 146 MiB (7%)
Source stream size : 146 MiB (7%)
Language : English
Encoded date : UTC 2014-11-06 16:22:11
Tagged date : UTC 2014-11-06 16:22:11
mdhd_Duration : 7767915

Скриншоты





[teatrix.ru].t19407.torrent 
Торрент: Зарегистрирован [ 2016-03-18 12:47 ] · 265455D914ADFC5FF1B087BD64DF407E0B514C66

Скачать .torrent

Скачать

20 KB

Статус: проверено
Скачан: 0 раз
Размер: 1.94 GB
terms.php



Быстрый ответ

Имя:

      
Для отправки сообщений необходимо включить JavaScript
Показать сообщения:    

Текущее время: 03-Дек 09:50

Часовой пояс: UTC + 3


Вы можете начинать темы
Вы можете отвечать на сообщения
Вы не можете редактировать свои сообщения
Вы не можете удалять свои сообщения
Вы не можете голосовать в опросах
Вы не можете прикреплять файлы к сообщениям
Вы можете скачивать файлы