(Classical) Гуммель – Фортепианные трио opp. 12, 35, 65, 96 / Hummel – Piano Trios Nos. 2, 4, 5, 8 (Beaux Arts Trio: Menahem Pressler, Ida Kavafian, Peter Wiley) - 1997, FLAC (image+.cue) lossless


 

[Цитировать]

Гуммель – Фортепианные трио opp. 12, 35, 65, 96 / Hummel – Piano Trios Nos. 2, 4, 5, 8 (Beaux Arts Trio: Menahem Pressler, Ida Kavafian, Peter Wiley)
Жанр: Classical
Страна-производитель диска: Германия
Год издания диска: 1997
Издатель (лейбл): Philips
Номер по каталогу: 446 077-2
Дата записи: июнь 1996 г., Нью-Йорк.
Аудиокодек: FLAC
Тип рипа: image+.cue
Битрейт аудио: lossless
Продолжительность: 01:08:55
Источник: odeonmusic
Наличие сканов в содержимом раздачи: да
Треклист:
Иоганн Непомук Гуммель (1778 — 1837).
Фортепианное трио № 2 Es-dur, op. 12 (опубл. 1804).
01. I. Allegro agitato [08:49].
02. II. Andante [05:51].
03. III. Finale. Presto [04:40].
Фортепианное трио № 5 G-dur, op. 65 (опубл. 1814?).
04. I. Allegro con spirito [07:24].
05. II. Andante grazioso [04:57].
06. III. Rondo. Vivace assai e scherzante [03:35].
Фортепианное трио № 8 Es-dur, op. 96 (опубл. нач. 1820-х).
07. I. Allegro con spirito [08:39].
08. II. Andante quasi allegretto [04:01].
09. III. Rondo alla Russa. Allegro vivace [05:43].
Фортепианное трио № 4 G-dur, op. 35 (опубл. 1811).
10. I. Allegro con brio [07:13].
11. II. Tempo di minuetto [03:47].
12. III. Rondo. Vivace e scherzante [03:29].
Исполнители:
Beaux Arts Trio:
Menahem Pressler (фортепиано),
Ida Kavafian (скрипка),
Peter Wiley (виолончель).

Содержание индексной карты (.CUE)

REM GENRE Classical
REM DISCID BB10290C
REM COMMENT "ExactAudioCopy v1.0b3"
PERFORMER "Beaux Arts Trio"
TITLE "Hummel – Piano Trios – Beaux Arts Trio"
FILE "Hummel – Piano Trios – Beaux Arts Trio.flac" WAVE
TRACK 01 AUDIO
TITLE "Piano Trio No. 2 in E flat, Op. 12 - I. Allegro agitato"
PERFORMER "Beaux Arts Trio"
INDEX 00 00:00:00
INDEX 01 00:00:32
TRACK 02 AUDIO
TITLE "Piano Trio No. 2 in E flat, Op. 12 - II. Adante"
PERFORMER "Beaux Arts Trio"
INDEX 00 08:51:32
INDEX 01 08:52:32
TRACK 03 AUDIO
TITLE "Piano Trio No. 2 in E flat, Op. 12 - III. Finale. Presto"
PERFORMER "Beaux Arts Trio"
INDEX 00 14:45:32
INDEX 01 14:46:32
TRACK 04 AUDIO
TITLE "Piano Trio No. 5 in G, Op. 65 - I. Allegro con spirito"
PERFORMER "Beaux Arts Trio"
INDEX 00 19:28:32
INDEX 01 19:32:32
TRACK 05 AUDIO
TITLE "Piano Trio No. 5 in G, Op. 65 - II. Andante grazioso"
PERFORMER "Beaux Arts Trio"
INDEX 00 26:57:32
INDEX 01 27:00:32
TRACK 06 AUDIO
TITLE "Piano Trio No. 5 in G, Op. 65 - III. Rondo. Vivace assai e scherzando"
PERFORMER "Beaux Arts Trio"
INDEX 00 31:59:32
INDEX 01 32:01:32
TRACK 07 AUDIO
TITLE "Piano Trio No. 8 in E flat, Op. 96 - I. Allegro con spirito"
PERFORMER "Beaux Arts Trio"
INDEX 00 35:37:32
INDEX 01 35:43:32
TRACK 08 AUDIO
TITLE "Piano Trio No. 8 in E flat, Op. 96 - II. Andante quasi allegretto"
PERFORMER "Beaux Arts Trio"
INDEX 00 44:24:32
INDEX 01 44:26:32
TRACK 09 AUDIO
TITLE "Piano Trio No. 8 in E flat, Op. 96 - III. Rondo alla russa. Allegro vivace"
PERFORMER "Beaux Arts Trio"
INDEX 00 48:29:32
INDEX 01 48:31:32
TRACK 10 AUDIO
TITLE "Piano Trio No. 4 in G, Op. 35 - I. Allegro con brio"
PERFORMER "Beaux Arts Trio"
INDEX 00 54:16:32
INDEX 01 54:20:32
TRACK 11 AUDIO
TITLE "Piano Trio No. 4 in G, Op. 35 - II. Tempo di menuetto"
PERFORMER "Beaux Arts Trio"
INDEX 00 61:35:32
INDEX 01 61:36:32
TRACK 12 AUDIO
TITLE "Piano Trio No. 4 in G, Op. 35 - III. Rondo. Vivace e scherzando"
PERFORMER "Beaux Arts Trio"
INDEX 00 65:25:32
INDEX 01 65:26:32

Лог проверки качества

AUDIOCHECKER v2.0 beta (build 457) - by Dester - opdester@freemail.hu
~~~~~~~~~~~~~~~~~~~~~~~~~~~~~~~~~~
-=== DO NOT EDIT THIS FILE! ===-
Path: ...\Hummel – Piano Trios (Beaux Arts Trio)
1 -=- Hummel – Piano Trios – Beaux Arts Trio.flac -=- CDDA (100%)
124479972



Показать сообщения:    

Текущее время: 21-Янв 11:35

Часовой пояс: UTC + 3


Вы не можете начинать темы
Вы не можете отвечать на сообщения
Вы не можете редактировать свои сообщения
Вы не можете удалять свои сообщения
Вы не можете голосовать в опросах
Вы не можете прикреплять файлы к сообщениям
Вы не можете скачивать файлы