(Baroque serenata) Alessandro Scarlatti - Il Giardino d’Amore (Venere e Adone) (Brigitte Fassbaender, Munchener Kammerorchester, Hans Stadlmair) - 1991, FLAC (image+.cue) lossless


 

[Цитировать]

Alessandro Scarlatti - Il Giardino d’Amore (Venere e Adone)

Жанр: Baroque serenata
Страна-производитель диска: Made in USA
Год издания диска: 1991
Издатель (лейбл): Polydor Internanional GmbH, Hamburg / Archiv Produktion
Номер по каталогу: 431 122-2
Дата записи: ℗ 1964
Аудиокодек: FLAC
Тип рипа: image+.cue
Битрейт аудио: lossless
Продолжительность: 58'44
Источник: релизер
сайт-источник/ник/другое: Saoshya
Наличие сканов в содержимом раздачи: да
Другая версия Il Giardino d’Amore (Clementic Consort): http://teatrix.ru/viewtopic.php?t=4838262
Треклист:

скрытый текст

1. Sinfonia 4:48
2. Aria (Venere): "Care Selve, Amati Orrori" 5:00
3. Recitativo (Venere): "Ma Voi Non Rispondete" 0:50
4. Aria (Venere): "Fugga L'aura, Si Posa Ogni Fronda" 2:37
5. Recitativo (Adone): "Invan Fra Queste Selve" 1:07
6. Aria (Adone): "Più Non M'alletta E Piace" 5:48
7. Recitativo (Adone/Venere): "Ciprigna, E Dove Sei?" 1:54
8. Aria (Adone): "Se Come Dolce E Vago" 3:56
9. Recitativo (Venere): "Mira, Mio Ben, Deh Mira" 1:38
10. Aria (Venere): "Augelletti, Sì Cantate" 6:07
11. Recitativo (Adone): "O Fortunate Aurette" 0:29
12. Duetto (Adone & Venere): "Tanto Respira Il Core" 3:54
13. Recitativo (Venere): "O Me Felice" 0:24
14. Aria (Adone): "Ah, Non Mi Dir Così" 4:37
15. Recitativo (Venere): "Pria Che Dal Vago Oriente" 0:46
16. Aria (Venere): "Andiamo, O Caro Bene" 3:27
17. Recitativo (Adone): "Venere, Assai Ti Deggio" 0:29
18. Aria (Adone): "Con Battaglia Di Fiero Tormento" 5:33
19. Recitativo (Venere/Adone): "Io, Delle Sfere Il Luminoso Impero" 1:21
20. Duetto (Adone & Venere): "Vieni, Vola, Soave Contento" 3:59
Исполнители:

скрытый текст

Alessandro Scarlatti
Il Giardino d’Amore (Venere e Adone)
serenata a due
Catherine Gayer, soprano
Brigitte Fassbaender, contralto
Münchener Kammerorchester:
Bassoon – Achim Von Lorne
Cello – Emmerich Bünemann
Harpsichord – Hilde Noe
Liner Notes – Anna Amalie Abert
Lute – Karl Scheit
Piccolo Flute – Hans-Martin Linde
Trumpet – Rolf Quinque
Violin [1st] – Werner Grobholz
Violin [2nd] – Manfred Schweiger
Art Direction – Hartmut Pfeiffer
Producer – Wolfgang Lohse
Engineer – Klaus Scheibe
Dirección: Hans Stadlmair
записано в 1964 году
Audio CD (March 8, 1991)

Лог создания рипа

Exact Audio Copy V0.99 prebeta 4 from 23. January 2008
EAC extraction logfile from 14. February 2014, 17:58
Münchener Kammerorchester, Hans Stadlmair / Alessandro Scarlatti - Il Giardino d’Amore
Used drive : SONY DVD-ROM DDU1615 Adapter: 0 ID: 0
Read mode : Secure
Utilize accurate stream : Yes
Defeat audio cache : Yes
Make use of C2 pointers : No
Read offset correction : 6
Overread into Lead-In and Lead-Out : No
Fill up missing offset samples with silence : Yes
Delete leading and trailing silent blocks : No
Null samples used in CRC calculations : Yes
Used interface : Native Win32 interface for Win NT & 2000
Used output format : User Defined Encoder
Selected bitrate : 1024 kBit/s
Quality : High
Add ID3 tag : No
Command line compressor : C:\Program Files\REACT\REACT.exe
Additional command line options : REACT %o %s %d "%a" "%g" "%t" "%n" "%x" "%y" "%m" "%e" "%f" "%b" %r
TOC of the extracted CD
Track | Start | Length | Start sector | End sector
---------------------------------------------------------
1 | 0:00.33 | 4:47.62 | 33 | 21619
2 | 4:48.20 | 5:00.13 | 21620 | 44132
3 | 9:48.33 | 0:51.00 | 44133 | 47957
4 | 10:39.33 | 2:36.62 | 47958 | 59719
5 | 13:16.20 | 1:07.00 | 59720 | 64744
6 | 14:23.20 | 5:48.13 | 64745 | 90857
7 | 20:11.33 | 1:53.37 | 90858 | 99369
8 | 22:04.70 | 3:55.50 | 99370 | 117044
9 | 26:00.45 | 1:39.13 | 117045 | 124482
10 | 27:39.58 | 6:07.62 | 124483 | 152069
11 | 33:47.45 | 0:28.38 | 152070 | 154207
12 | 34:16.08 | 3:54.00 | 154208 | 171757
13 | 38:10.08 | 0:23.37 | 171758 | 173519
14 | 38:33.45 | 4:36.43 | 173520 | 194262
15 | 43:10.13 | 0:46.20 | 194263 | 197732
16 | 43:56.33 | 3:26.37 | 197733 | 213219
17 | 47:22.70 | 0:28.38 | 213220 | 215357
18 | 47:51.33 | 5:33.12 | 215358 | 240344
19 | 53:24.45 | 1:20.63 | 240345 | 246407
20 | 54:45.33 | 3:59.25 | 246408 | 264357
Range status and errors
Selected range
Filename L:\Saoshya\Archiv 431122-2 Alessandro Scarlatti - Il Giardino d'Amore (Munchener Kammerorchester, Hans Stadlmair)\CDImage\Alessandro Scarlatti - Il Giardino d’Amore - Münchener Kammerorchester.wav
Peak level 92.9 %
Range quality 100.0 %
Test CRC 87CBB00B
Copy CRC 87CBB00B
Copy OK
No errors occurred
AccurateRip summary
Track 1 cannot be verified as accurate (confidence 4) [6271F5BE], AccurateRip returned [B4765FF6]
Track 2 cannot be verified as accurate (confidence 4) [231CF8AA], AccurateRip returned [167F7195]
Track 3 cannot be verified as accurate (confidence 4) [8F734945], AccurateRip returned [5990B1F6]
Track 4 cannot be verified as accurate (confidence 4) [BBE4C91C], AccurateRip returned [ED4D7869]
Track 5 cannot be verified as accurate (confidence 4) [FA813D2D], AccurateRip returned [24E8A179]
Track 6 cannot be verified as accurate (confidence 4) [CA7DA34C], AccurateRip returned [6BC28978]
Track 7 cannot be verified as accurate (confidence 4) [A262865E], AccurateRip returned [A319E179]
Track 8 cannot be verified as accurate (confidence 4) [009BB4AD], AccurateRip returned [9C99EBB4]
Track 9 cannot be verified as accurate (confidence 4) [19D4B8F2], AccurateRip returned [DD288779]
Track 10 cannot be verified as accurate (confidence 4) [362B6739], AccurateRip returned [2949F7F4]
Track 11 cannot be verified as accurate (confidence 4) [F1D65AF7], AccurateRip returned [23FF3326]
Track 12 cannot be verified as accurate (confidence 4) [CCAB1D0E], AccurateRip returned [913A86CA]
Track 13 cannot be verified as accurate (confidence 4) [0D2668D0], AccurateRip returned [6AB38E6E]
Track 14 cannot be verified as accurate (confidence 4) [E476B81F], AccurateRip returned [96AA2C58]
Track 15 cannot be verified as accurate (confidence 4) [2B1E4E86], AccurateRip returned [06596A56]
Track 16 cannot be verified as accurate (confidence 4) [4FD3D317], AccurateRip returned [D4561110]
Track 17 cannot be verified as accurate (confidence 4) [CDF0966E], AccurateRip returned [7AF61919]
Track 18 cannot be verified as accurate (confidence 4) [0D5F9C1C], AccurateRip returned [9000840B]
Track 19 cannot be verified as accurate (confidence 4) [68D2241B], AccurateRip returned [6A6D17D1]
Track 20 cannot be verified as accurate (confidence 3) [7AA1AC8A], AccurateRip returned [985D46ED]
No tracks could be verified as accurate
You may have a different pressing from the one(s) in the database
End of status report



Показать сообщения:    

Текущее время: 03-Дек 01:19

Часовой пояс: UTC + 3


Вы не можете начинать темы
Вы не можете отвечать на сообщения
Вы не можете редактировать свои сообщения
Вы не можете удалять свои сообщения
Вы не можете голосовать в опросах
Вы не можете прикреплять файлы к сообщениям
Вы не можете скачивать файлы