Далида и Дассен. Однажды в Париже (Сергей Решетов) [2010, документальный, биографический, DVB]


Статистика раздачи [Обновить пиров]
Размер:  1.61 GB   |    Зарегистрирован:  8 месяцев 18 дней   |    Скачан:  1 раз

Полного источника не было: 3 месяца

Личеров:  15  [  0 KB/s  ]   Подробная статистика пиров
 
   
 
 
 

[Цитировать]

Далида и Дассен
Однажды в Париже- Дата/Год выпуска: 2010
Страна: Россия
Жанр: документальный, биографический
Продолжительность: 01:00:03
Перевод: Не требуется
Русские субтитры: нет
Режиссер: Сергей РешетовТелеканал: Время: далекое и близкое
В ролях: Далида (Archive), Джо Дассен (Archive), Тото Кутуньо, Жюль Дассен, Ален Делон (Archive)
Описание: Фильм посвящен легендарным звездам французской эстрады Далиде и Джо Дассену. Это не просто биографическая телеповесть, это — рассказ о многогранных, гениальных личностях с уникальными судьбами.
В середине 60-х два иностранца буквально взорвали французскую эстраду — на смену традиционным французским шансонье пришли артисты новой формации. Их не просто любили, их боготворили, и 200 миллионов дисков, которые были выпущены при жизни Далиды и Дассена, говорят сами за себя. Прошли десятилетия, но парижане до сих пор помнят прекрасную итальянку и голубоглазого американца, которые стали символами и гордостью французской нации.
Джо Дассен получил от жизни все: он был кумиром миллионов, его любили женщины всей планеты, он заводил романы со многими, но любил только двух. Одна из них сделала его певцом, другая так ранила его сердце, что оно остановилось. За огнями рампы и громом аплодисментов прятали они свои слезы, боль, любовь и страдания. Их они унесли с собой. А нам оставили часть своей души, прекрасные голоса, музыку и слова любви... (анонс канала "Время: далекое и близкое")
Доп. информация: "Время: далекое и близкое" DVB-S

качество: DVB
формат: MKV
Видео: MPEG Video 2, 720x576@768x576 (4:3), 25 fps, ~3560 kbps avg, 0.343 bit/pixel
Аудио: MPEG Audio 2, 2 ch, 48 kHz, ~192.00 kbps avg

MediaInfo

Общее
Уникальный идентификатор : 204058535071594388520710757628895442139 (0x99843E8B1D4AED63931540F14F5634DB)
Полное имя : E:\My Torrents 2\[apreder]Dalida_Dassin_Un_jour_a_Paris(2010)DVB.mkv
Формат : Matroska
Версия формата : Version 2
Размер файла : 1,61 Гбайт
Продолжительность : 1 ч. 0 м.
Режим общего битрейта : Переменный
Общий поток : 3829 Кбит/сек
Дата кодирования : UTC 2014-11-07 16:47:10
Программа кодирования : mkvmerge v7.3.0 ('Nouages') 64bit built on Oct 22 2014 18:53:34
Библиотека кодирования : libebml v1.3.0 + libmatroska v1.4.1
Видео
Идентификатор : 1
Формат : MPEG Video
Версия формата : Version 2
Профиль формата : Main@Main
Параметр BVOP формата : Нет
Параметр матрицы формата : Выборочная
Format_Settings_PictureStructure : Frame
Идентификатор кодека : V_MPEG2
Идентификатор кодека/Информация : MPEG 1 or 2 Video
Продолжительность : 1 ч. 0 м.
Вид битрейта : Переменный
Битрейт : 3560 Кбит/сек
Максимальный битрейт : 5202 Кбит/сек
Ширина : 720 пикселей
Высота : 576 пикселей
Соотношение сторон : 4:3
Режим частоты кадров : Постоянный
Частота кадров : 25,000 кадров/сек
Стандарт вещания : PAL
Цветовое пространство : YUV
Субдискретизация насыщенности : 4:2:0
Битовая глубина : 8 бит
Тип развёртки : Чересстрочная
Порядок развёртки : Верхнее поле первое
Метод сжатия : С потерями
Бит/(Пиксели*Кадры) : 0.343
Временной код первого кадра : 00:00:00:00
Оригинал временного кода : Group of pictures header
Размер потока : 1,49 Гбайт (93%)
Default : Да
Forced : Нет
Аудио
Идентификатор : 2
Формат : MPEG Audio
Версия формата : Version 1
Профиль формата : Layer 2
Идентификатор кодека : A_MPEG/L2
Идентификатор кодека/Подсказка : MP2
Продолжительность : 1 ч. 0 м.
Вид битрейта : Постоянный
Битрейт : 192 Кбит/сек
Каналы : 2 канала
Частота : 48,0 КГц
Метод сжатия : С потерями
Размер потока : 82,5 Мбайт (5%)
Язык : Russian
Default : Да
Forced : Нет

Скриншоты


Резервные скриншоты


-[1'890]
[teatrix.ru].t19412.torrent 
Торрент: Зарегистрирован [ 2016-03-18 12:47 ] · 8261BCF90C533060D92CDC7ACA62CED67E417FB6

Скачать .torrent

Скачать

17 KB

Статус: проверено
Скачан: 1 раз
Размер: 1.61 GB
terms.php



Быстрый ответ

Имя:

      
Для отправки сообщений необходимо включить JavaScript
Показать сообщения:    

Текущее время: 05-Дек 15:27

Часовой пояс: UTC + 3


Вы можете начинать темы
Вы можете отвечать на сообщения
Вы не можете редактировать свои сообщения
Вы не можете удалять свои сообщения
Вы не можете голосовать в опросах
Вы не можете прикреплять файлы к сообщениям
Вы можете скачивать файлы