Веллингтон. Железный герцог / Wellington. The Iron Duke (Рэйчел Белл / Rachel Bell, Мэри Кранич / Mary Cranitch, Джонатан Хакер / Jonathan Hacker) [2002, документальный, PDTVRip] Rus.Sub


Статистика раздачи [Обновить пиров]
Размер:  1.74 GB   |    Зарегистрирован:  8 месяцев 15 дней   |    Скачан:  0 раз

Полного источника не было: Никогда

 
   
 
 
 

[Цитировать]

Веллингтон. Железный герцог / Wellington. The Iron Duke

Год выпуска: 2002
Страна: Великобритания
Жанр: документальный
Продолжительность: 02:19:31 [ 3 серии ]
Перевод: субтитры
Русские субтитры: есть
Формат субтитров: softsub (SRT)
Доп. информация о субтитрах: перевод и тайминг - Al.Tche
Оригинальная аудиодорожка: английский
Телеканал: BBC
Описание: Жила-была в Ирландии семья англичан. Не простая семья: графья - правда, обедневшие.
И было у них много детей: 5 мальчишек и девчушка. И вроде бы, дети как дети, на радость родителям. Да вот только один из братьев - это уж как водится - "дурачок"...
Чем в русской народной традиции заканчиваются подобные истории, всем известно. А вот как развивались события в английском ремейке, нам и рассказывает Ричард Холмс, профессор университета Кренфилда, военный историк и бригадный генерал Королевского пехотного полка Британской армии. Мистер Холмс вкратце поведает, как так получилось, что интонский двоечник достопочтенный Артур Уэсли превратился в одного из самых известных людей эпохи, сэра Артура Уэлсли, 1-ого герцога Веллингтона, маркиза Дору, князя Ватерлоо (Нидерланды), герцога Сьюдад-Родриго (Испания), герцога Витория (Испания), герцога Брюнуа (Франция), маркиза Торриш-Ведраш (Португалия), графа Вимейру (Португалия) и пр. и пр.
Rip: MVGroup
Источник: сеть
серия 1 - Становление / The Making of a Man
режиссёр: Рэйчел Белл / Rachel Bell
рассказывает: профессор Ричард Холмс / Richard Holmes
ему помогают: Кристофер Барри / Christopher Barry (владелец "останков" замка Данган и прилегающих земель), Элиза Пакенэм / Elisa Pakenham (внучатая племянница герцогини Веллингтон)
и два представителя Индии - научный сотрудник института Бангалора и толмач Холмса - имена которых правильно записать я не в состоянии
реконструкция: Джеймс Шуманн / James Schumann (Артур Уэлсли / Arthur Wellesley), Джорджина Белл / Georgina Bell (Китти Пакенэм / Kitty Pakenham), Зои Тревик / Zoe Treweek (маркиза де Серан / marquise de Serent) и статисты в военной форме противоборствующих сторон
продолжительность: 00:46:11
качество: PDTVRip
формат: AVI
видео: XviD, 704 х 400 (16:9), 1646 kbps, 25 fps
аудио: AC3, 128 kbps, 48.0 kHz, 2ch

MediaInfo


General
Format : AVI
Format/Info : Audio Video Interleave
Format profile : OpenDML
Format settings : rec
File size : 588 MiB
Duration : 46mn 11s
Overall bit rate : 1 779 Kbps
Writing application : AVI-Mux GUI 1.17.8.3, Feb 16 201019:42:50
Video #0
ID : 0
Format : MPEG-4 Visual
Format profile : Advanced Simple@L5
Format settings, BVOP : 2
Format settings, QPel : No
Format settings, GMC : No warppoints
Format settings, Matrix : Default (H.263)
Codec ID : XVID
Codec ID/Hint : XviD
Duration : 46mn 11s
Bit rate : 1 646 Kbps
Width : 704 pixels
Height : 400 pixels
Display aspect ratio : 16:9
Frame rate : 25.000 fps
Color space : YUV
Chroma subsampling : 4:2:0
Bit depth : 8 bits
Scan type : Progressive
Compression mode : Lossy
Bits/(Pixel*Frame) : 0.234
Stream size : 544 MiB (92%)
Writing library : XviD 1.2.1 (UTC 2008-12-04)
Audio #1
ID : 1
Format : AC-3
Format/Info : Audio Coding 3
Mode extension : CM (complete main)
Format settings, Endianness : Big
Codec ID : 2000
Duration : 46mn 11s
Bit rate mode : Constant
Bit rate : 128 Kbps
Channel(s) : 2 channels
Channel positions : Front: L R
Sampling rate : 48.0 KHz
Bit depth : 16 bits
Compression mode : Lossy
Stream size : 42.3 MiB (7%)
Alignment : Aligned on interleaves
Interleave, duration : 64 ms (1.60 video frames)
Interleave, preload duration : 192 ms
Title : Wellington E01 Tc0 L2 2ch 48 128 DELAY 0ms

Содержание


[ 1769 ]
Родовое гнездо: замок Данган
"...что мне делать с моим трудным Артуром..."
Военная академия (верховой езды), Анже, Франция
"...весьма очаровательный юноша"
Начало военной службы
Китти Пакенэм
"...как не надо делать": Кампания во Фландрии
"Как же далеко!" - Индия, опасная и притягательная
Как надо делать: подготовка марша на Серингапатам
Малавалли
Ночной фейерверк или О важности рекогносцировки перед началом атаки
Серингапатам
Во главе княжества Майсур
Логистика: как добраться до цели и не умереть от голода
Прекрасное соотношение 5:1 - Ассайе
Домой
[ 1805 ]
Примечание: похоже, из оригинальной версии фильма вырезаны два фрагмента - в самом начале, продолжительностью примерно 2 минуты, и в самом конце, перед титрами, продолжительностью около минуты.
Первый - вступление - Холмс говорит о:
- Веллингтона помнят по одному сражению у Ватерлоо
- две культуры сыграли роль в становлении Герцога - Ирландия и Индия
- о своём восхищении - от детского до более взвешенного взрослого - личностью Герцога
- фильм - попытка выяснить, что кроется за профилем с орлиным носом, и как застенчивый мальчик из Ирландии стал одним из величайших полководцев в истории Британии
Второй - подведение итогов и анонс на следующую серию - Холмс:
- говорит, что Уэлсли прибыл в Индию подполковником, а уехал генерал-майором; что, несмотря на рыцарский титул и относительное финансовое благополучие, Уэлсли в Англии - пока никто
- приводит известную фразу Уэлсли о том, что ничего нового в военном деле после прибытия из Индии он в общем-то и не узнал
- упоминает о предстоящей (по состоянию на 1805 год, конечно) свадьбе сэра Артура Уэлсли и Китти Пакенэм

Скриншоты

Примечание к субтитрам


Остались не переведены 2 фразы на 15-ой минуте серии, потому как не разобрать.
В принципе, особой смысловой нагрузки они не несут: и так понятно, что Индия - это даль дальняя сейчас, а в конце 18 - начале 19 века и вовсе несусветная, а если учесть ещё и опасности морского путешествия (помимо природных явлений, пираты, каперы и прочая "нечисть") вкупе с опасностями на территории "принимающей страны" (холера, брюшной тиф, дизентерия, солнечный удар, змеи, тигры, фанатики, обиженные слуги, безжалостные дуэлянты, переедание и попойки - перечень приводится по книге R. Holmes "Wellington. The Iron Duke", Two "Sepoy General"), то, выражаясь современным языком, "попал парень"...
Но будет здорово, если у кого-нибудь из вас обнаружится энтузиазм, хороший слух и такое же знание языка, чтобы восполнить сей пробел в 2 фразы.

серия 2 - В погоне за репутацией / A Thirst for Reputation
режиссёр: Мэри Кранич / Mary Cranitch
рассказывает: профессор Ричард Холмс / Richard Holmes
ему помогает: Том Бёрнс Мараньон / Tom Burns Marañón (англо-испанский журналист)
реконструкция: Джон Ганнери / John Gunnery (Веллингтон / Wellington), Зои Карлтон / Zoe Carlton (Китти Пакенэм / Kitty Pakenham) и статисты в военной форме противоборствующих сторон
продолжительность: 00:46:48
качество: PDTVRip
формат: AVI
видео: XviD, 704 х 400 (16:9), 1650 kbps, 25 fps
аудио: AC3, 128 kbps, 48.0 kHz, 2ch

MediaInfo


General
Format : AVI
Format/Info : Audio Video Interleave
Format profile : OpenDML
Format settings : rec
File size : 597 MiB
Duration : 46mn 48s
Overall bit rate : 1 784 Kbps
Writing application : AVI-Mux GUI 1.17.8.3, Feb 16 201019:42:50
Video #0
ID : 0
Format : MPEG-4 Visual
Format profile : Advanced Simple@L5
Format settings, BVOP : 2
Format settings, QPel : No
Format settings, GMC : No warppoints
Format settings, Matrix : Default (H.263)
Codec ID : XVID
Codec ID/Hint : XviD
Duration : 46mn 48s
Bit rate : 1 650 Kbps
Width : 704 pixels
Height : 400 pixels
Display aspect ratio : 16:9
Frame rate : 25.000 fps
Color space : YUV
Chroma subsampling : 4:2:0
Bit depth : 8 bits
Scan type : Progressive
Compression mode : Lossy
Bits/(Pixel*Frame) : 0.234
Stream size : 552 MiB (93%)
Writing library : XviD 1.2.1 (UTC 2008-12-04)
Audio #1
ID : 1
Format : AC-3
Format/Info : Audio Coding 3
Mode extension : CM (complete main)
Format settings, Endianness : Big
Codec ID : 2000
Duration : 46mn 48s
Bit rate mode : Constant
Bit rate : 128 Kbps
Channel(s) : 2 channels
Channel positions : Front: L R
Sampling rate : 48.0 KHz
Bit depth : 16 bits
Compression mode : Lossy
Stream size : 42.9 MiB (7%)
Alignment : Aligned on interleaves
Interleave, duration : 64 ms (1.60 video frames)
Interleave, preload duration : 192 ms
Title : Wellington E02 Tc0 L2 2ch 48 128 DELAY 0ms

Содержание


[ апрель 1806 ]
Пролог
"Она подурнела, ей-богу!"
Фальстарт: французская метода; двойное подчинение и Вимейру; Синтрская конвенция (скандал и разбирательство)
Второй шанс: прибытие в Португалию; генерал де ла Куэста; инцидент у Альберче под Талаверой; виконт Веллингтон
Ничегонеделание, "нытики" и отступление
Линии Торриш-Ведраш
Детали, детали, детали
"Боже правый! Что случилось?" - Бадахос
"Мармон пропал" - Саламанка
Мадрид, набросок руки Гойи [ эпизод вырезан, см. ниже ]
"Наконец, мы ступили на священную землю Франции"
"За освободителя Испании!"
Уф!.. Догнал...
[ март 1815 ]
Примечание: по традиции из оригинальной версии фильма вырезан фрагмент продолжительностью чуть менее 2 минут - Мадрид, набросок руки Гойи.
О чём:
- Саламанка позволила Веллингтону занять видное положение на мировой арене.
Это была по-настоящему великая победа: французы потеряли 14 тыс. убитыми и ранеными против 5 тыс. у союзников
- Веллингтон и его армия триумфально вступили в Мадрид 12 августа 1812 года
Британия "повысила" до маркиза [ Веллингтон: "За каким чёртом делать меня маркизом?" - цитата приводится по книге R. Holmes "Wellington. The Iron Duke", Four "Peninsula" ]
Испания "отдала" звание генералиссимуса всей испанской армии.

- Пока Веллингтон находился в Мадриде, Франсиско Гойя сделал карандашный набросок.
И тот самый триумф в глазах сэра Артура найти крайне затруднительно.
Портрет не похож на другие его изображения. Вид бледный, взгляд беспокойный.
Так вот пока Гойя, улучив у триумфатора время на сеанс, работал, Веллингтон в ярости обрушился на доктора Джеймса Макгригора.
"Несчастный" взял на себя инициативу по организации эвакуационной линии (после Саламанки) и сделал это несколько иначе, чем было предписано главнокомандующим.
И пусть даже Веллингтон признавал, что вышло лучше, шефа медицинской службы не миновала гневная отповедь.
"Я был бы счастлив узнать, кто командует армией, Вы или я?! - гремел Веллингтон. - Никогда больше, сэр, никогда не поступайте подобным образом! Никогда ничего не предпринимайте без моего приказа!"
Эту мантру, это заклинание - "никогда ничего без моего приказа" - он твердил всем своим офицерам.
Должно быть, порядком изматывало быть ответственным за всё. Возможно, именно это и отразил Гойя в своём наброске.
- После Саламанки было ещё много тяжёлых, жёстких сражений, стычек, неизбежные взлёты и падения, но цели своей Веллингтон достиг: вытеснил французов из Испании.

Скриншоты


серия 3 - От службы военной к службе государственной / From Soldier to Statesman
режиссёр: Джонатан Хакер / Jonathan Hacker
рассказывает: профессор Ричард Холмс / Richard Holmes
ему помогают: Алисия Робинсон / Alicia Robinson (директор Эпсли-хаус), Эдвард дю Канн / Edward du Cann (коллекционер, бывший политик-консерватор)
реконструкция: Мартин Уимбуш / Martin Wimbush (Герцог / The Duke), статисты в военной форме противоборствующих сторон и статисты в гражданской одежде опять же противоборствующих сторон.
продолжительность: 00:46:32
качество: PDTVRip
формат: AVI
видео: XviD, 704 х 400 (16:9), 1650 kbps, 25 fps
аудио: AC3, 128 kbps, 48.0 kHz, 2ch

MediaInfo


General
Format : AVI
Format/Info : Audio Video Interleave
Format profile : OpenDML
Format settings : rec
File size : 594 MiB
Duration : 46mn 32s
Overall bit rate : 1 784 Kbps
Writing application : AVI-Mux GUI 1.17.8.3, Feb 16 201019:42:50
Video #0
ID : 0
Format : MPEG-4 Visual
Format profile : Advanced Simple@L5
Format settings, BVOP : 2
Format settings, QPel : No
Format settings, GMC : No warppoints
Format settings, Matrix : Default (H.263)
Codec ID : XVID
Codec ID/Hint : XviD
Duration : 46mn 32s
Bit rate : 1 650 Kbps
Width : 704 pixels
Height : 400 pixels
Display aspect ratio : 16:9
Frame rate : 25.000 fps
Color space : YUV
Chroma subsampling : 4:2:0
Bit depth : 8 bits
Scan type : Progressive
Compression mode : Lossy
Bits/(Pixel*Frame) : 0.234
Stream size : 549 MiB (93%)
Writing library : XviD 1.2.1 (UTC 2008-12-04)
Audio #1
ID : 1
Format : AC-3
Format/Info : Audio Coding 3
Mode extension : CM (complete main)
Format settings, Endianness : Big
Codec ID : 2000
Duration : 46mn 32s
Bit rate mode : Constant
Bit rate : 128 Kbps
Channel(s) : 2 channels
Channel positions : Front: L R
Sampling rate : 48.0 KHz
Bit depth : 16 bits
Compression mode : Lossy
Stream size : 42.6 MiB (7%)
Alignment : Aligned on interleaves
Interleave, duration : 64 ms (1.60 video frames)
Interleave, preload duration : 192 ms
Title : Wellington E03 Tc0 L2 2ch 48 128 DELAY 0ms

Содержание


[ 18 июня 1815 ]
Пролог
Ватерлоо:
- Герцог против Императора
- 11:30 атака на Угумон
- 13:30 атака на Ла-Э-Сент, атака британской тяжёлой кавалерии
- 16:00 французская кавалерия против английских каре
- 18:00 ещё раз на Ла-Э-Сент и успешно
- 19:30 атака Императорской гвардии
- Блюхер и Веллингтон
Триумфатора завалили подарками: мини-экскурсия в Эпсли-хаус
"Я - герцог Веллингтон"
Угадайка "Что по другую сторону холма?"
Промышленная революция и Битва при Петерлоо
Премьер-министр:
- "Я привык вести дела в совершенно иной манере"
- недоразумение Хаскиссона
- балансирование на грани или эмансипация католиков
- дуэль с Уинчилси
- "Я не слишком много и сказал": Билль о реформе парламентского представительства
"Герцог Веллингтон решил свою судьбу"
Смерть Китти и разбитые окна
Ничтожно мало и слишком поздно: отступление с позиций по Биллю о реформе
Непослушный школяр в сговоре с дьяволом: карикатуры на Веллингтона из коллекции дю Канна
Успех Ватерлоо против Ошибок Политика, победа Успеха Ватерлоо
Столп истеблишмента
Умение "гнуться под ветром": Хлебные законы
14 сентября 1852: "Где дерево упало, там пусть и лежит" [ эпизод порезан, см. ниже ]
[ 18 ноября 1852 ]
Примечание: из оригинальной версии фильма вырезаны два фрагмента общей продолжительностью примерно 2 минуты, оба из заключительного эпизода серии.
В первом Холмс говорит о личности Веллингтона:
- всего себя отдавал служению своей стране
- "в поле" его собственная жизнь значила для него не больше жизни последнего рядового
- сильнейшее чувство чести и долга, прямолинейная честность и бескорыстность
Во втором - ещё немного о церемонии похорон и итог:
Веллингтон - дитя 18 столетия.
Власть тогда была ещё крепко связана с "высшим светом", а сельская местность доминировала над городом.
Но умер он когда уже вовсю повалил дым промышленной революции, а нация ступила на долгий путь к парламентской демократии.
Временами бывал упрям и недальновиден, но он "построен с размахом": Веллингтон - великий человек.

Скриншоты


[teatrix.ru].t19415.torrent 
Торрент: Зарегистрирован [ 2016-03-18 12:36 ] · 8670E923F1277B8B9F84735F6A279800AE3E1E70

Скачать .torrent

Скачать

36 KB

Статус: проверено
Скачан: 0 раз
Размер: 1.74 GB
terms.php



Быстрый ответ

Имя:

      
Для отправки сообщений необходимо включить JavaScript
Показать сообщения:    

Текущее время: 03-Дек 03:23

Часовой пояс: UTC + 3


Вы можете начинать темы
Вы можете отвечать на сообщения
Вы не можете редактировать свои сообщения
Вы не можете удалять свои сообщения
Вы не можете голосовать в опросах
Вы не можете прикреплять файлы к сообщениям
Вы можете скачивать файлы