Артефакт / Artifact (Джаред Лето (Jared Leto) Джаред Лето Jared Leto) [2012, документальный, музыка, BDRip-AVC] AVO + Original Eng + Sub Rus, Eng


Статистика раздачи [Обновить пиров]
Размер:  2.9 GB   |    Зарегистрирован:  8 месяцев 19 дней   |    Скачан:  0 раз

Полного источника не было: Никогда

 
   
 
 
 

[Цитировать]

Артефакт / Artifact
Страна: США
Жанр: документальный, музыка
Год выпуска: 2012
Продолжительность: 01:43:45
Перевод: Любительский (одноголосый закадровый)
Cубтитры: русские, английские
Оригинальная аудиодорожка: английский
Режиссер: Джаред Лето / Jared Leto
Описание: Рассказывая горькую правду о современном музыкальном бизнесе, «Артефакт» предоставляет близкий доступ к музыканту/актёру Джареду Лето и его группе Thirty Seconds to Mars, в то время как они ведут борьбу со своим лейблом, предъявившим группе безжалостный судебный иск, и записывают свой альбом This Is War. Этот фильм - истинный артефакт нашего времени, поскольку в нём рассматривается борьба с важными проблемами, связанными с искусством, деньгами и честностью.
В ролях: Джаред Лето, Шеннон Лето, Томо Миличевич, Ирвинг Азофф, Честер Беннингтон, Брэндон Бойд, Анджелика Коб-Балер, Сонни ДиПерри, Дэниэл Эк, Роберт Эзрин
Доп. информация: Приз зрительских симпатий (документальный фильм), Кинофестиваль в Торонто 2012; Победитель, People’s Choice Award (Documentary), Кинофестиваль в Торонто 2012; Приз зрительских симпатий , 2012 DOC NYC New York Documentary Film Festival; Победитель, Audience Award, Gotham Independent Film Awards 2012; Приз зрительских симпатий (24 Beats Per Second), South by Southwest 2013.
Качество видео: BDRip-AVC |Artifact (2012) [Limited Edition] Blu-ray 1080p AVC LPCM 2.0 HDCLUB|
Формат видео: MKV
Видео: AVC (x264), 1152x648 (1.78:1), ~3630 kbps, 23.976 fps, 0.203 bpp
Аудио 1: AС3, 48 KHz, 2 ch, 192 kbps - Русский
Аудио 2: AС3, 48 KHz, 2 ch, 192 kbps - Английский
Формат субтитров: softsub (SRT)

Релиз от: nnlabetik

MediaInfo

Общее
Уникальный идентификатор : 201332321782062726249906435496147400356 (0x977731D9C7A9EC1CBAD6750717AFB6A4)
Полное имя : ...Artefakt.2012.BDRip(AVC).mkv
Формат : Matroska
Версия формата : Version 4 / Version 2
Размер файла : 2,90 Гбайт
Продолжительность : 1 ч. 43 м.
Общий поток : 4006 Кбит/сек
Название фильма : Артефакт / Artifact (2012) [Limited Edition] -=NN@LIFE=-
Дата кодирования : UTC 2014-11-06 11:58:10
Программа кодирования : mkvmerge v7.3.0 ('Nouages') 32bit built on Oct 22 2014 18:44:01
Библиотека кодирования : libebml v1.3.0 + libmatroska v1.4.1
DURATION : 01:40:33.462000000
NUMBER_OF_FRAMES : 1737
NUMBER_OF_BYTES : 121330
_STATISTICS_WRITING_APP : mkvmerge v7.3.0 ('Nouages') 32bit built on Oct 22 2014 18:44:01
_STATISTICS_WRITING_DATE_UTC : 2014-11-06 11:58:10
_STATISTICS_TAGS : BPS DURATION NUMBER_OF_FRAMES NUMBER_OF_BYTES
Видео
Идентификатор : 1
Формат : AVC
Формат/Информация : Advanced Video Codec
Профиль формата : High@L4.0
Параметр CABAC формата : Да
Параметр ReFrames формата : 9 кадров
Идентификатор кодека : V_MPEG4/ISO/AVC
Продолжительность : 1 ч. 43 м.
Битрейт : 3627 Кбит/сек
Ширина : 1152 пикселя
Высота : 648 пикселей
Соотношение сторон : 16:9
Режим частоты кадров : Постоянный
Частота кадров : 23,976 кадра/сек
Цветовое пространство : YUV
Субдискретизация насыщенности : 4:2:0
Битовая глубина : 8 бит
Тип развёртки : Прогрессивная
Бит/(Пиксели*Кадры) : 0.203
Размер потока : 2,57 Гбайт (88%)
Заголовок : Rip by nnlabetik
Библиотека кодирования : x264 core 142 r2479 dd79a61
Настройки программы : cabac=1 / ref=9 / deblock=1:-3:-2 / analyse=0x3:0x113 / me=umh / subme=11 / psy=1 / psy_rd=1.00:0.00 / mixed_ref=1 / me_range=32 / chroma_me=1 / trellis=2 / 8x8dct=1 / cqm=0 / deadzone=21,11 / fast_pskip=0 / chroma_qp_offset=-2 / threads=4 / lookahead_threads=1 / sliced_threads=0 / nr=0 / decimate=1 / interlaced=0 / bluray_compat=0 / constrained_intra=0 / bframes=12 / b_pyramid=2 / b_adapt=2 / b_bias=0 / direct=3 / weightb=1 / open_gop=0 / weightp=0 / keyint=240 / keyint_min=23 / scenecut=40 / intra_refresh=0 / rc_lookahead=60 / rc=2pass / mbtree=0 / bitrate=3627 / ratetol=1.0 / qcomp=0.60 / qpmin=0 / qpmax=69 / qpstep=4 / cplxblur=20.0 / qblur=0.5 / vbv_maxrate=20000 / vbv_bufsize=25000 / nal_hrd=none / filler=0 / ip_ratio=1.35 / pb_ratio=1.25 / aq=1:1.00
Язык : English
Default : Да
Forced : Нет
Основные цвета : BT.709
Характеристики трансфера : BT.709
Коэффициенты матрицы : BT.709
Аудио #1
Идентификатор : 2
Формат : AC-3
Формат/Информация : Audio Coding 3
Расширение режима : CM (complete main)
Параметр Endianness формата : Big
Идентификатор кодека : A_AC3
Продолжительность : 1 ч. 43 м.
Вид битрейта : Постоянный
Битрейт : 192 Кбит/сек
Каналы : 2 канала
Расположение каналов : Front: L R
Частота : 48,0 КГц
Битовая глубина : 16 бит
Метод сжатия : С потерями
Размер потока : 142 Мбайт (5%)
Язык : Russian
Default : Да
Forced : Нет
Аудио #2
Идентификатор : 3
Формат : AC-3
Формат/Информация : Audio Coding 3
Расширение режима : CM (complete main)
Параметр Endianness формата : Big
Идентификатор кодека : A_AC3
Продолжительность : 1 ч. 43 м.
Вид битрейта : Постоянный
Битрейт : 192 Кбит/сек
Каналы : 2 канала
Расположение каналов : Front: L R
Частота : 48,0 КГц
Битовая глубина : 16 бит
Метод сжатия : С потерями
Размер потока : 142 Мбайт (5%)
Язык : English
Default : Нет
Forced : Нет
Текст #1
Идентификатор : 4
Формат : UTF-8
Идентификатор кодека : S_TEXT/UTF8
Идентификатор кодека/Информация : UTF-8 Plain Text
Язык : Russian
Default : Нет
Forced : Нет
Текст #2
Идентификатор : 5
Формат : UTF-8
Идентификатор кодека : S_TEXT/UTF8
Идентификатор кодека/Информация : UTF-8 Plain Text
Язык : English
Default : Нет
Forced : Нет
Меню
00:00:00.000 : :Chapter 01
00:02:44.998 : :Chapter 02
00:04:17.215 : :Chapter 03
00:06:52.245 : :Chapter 04
00:07:59.812 : :Chapter 05
00:09:38.452 : :Chapter 06
00:11:52.837 : :Chapter 07
00:13:40.110 : :Chapter 08
00:16:30.197 : :Chapter 09
00:18:46.416 : :Chapter 10
00:21:14.273 : :Chapter 11
00:23:38.667 : :Chapter 12
00:27:20.805 : :Chapter 13
00:29:33.480 : :Chapter 14
00:34:02.707 : :Chapter 15
00:35:44.559 : :Chapter 16
00:37:48.975 : :Chapter 17
00:41:14.054 : :Chapter 18
00:44:17.988 : :Chapter 19
00:46:13.729 : :Chapter 20
00:48:31.742 : :Chapter 21
00:50:25.564 : :Chapter 22
00:51:45.769 : :Chapter 23
00:54:11.331 : :Chapter 24
00:56:08.782 : :Chapter 25
00:58:23.708 : :Chapter 26
01:02:08.433 : :Chapter 27
01:05:39.602 : :Chapter 28
01:08:00.076 : :Chapter 29
01:10:45.491 : :Chapter 30
01:15:23.644 : :Chapter 31
01:19:37.189 : :Chapter 32
01:22:05.962 : :Chapter 33
01:23:20.286 : :Chapter 34
01:25:25.870 : :Chapter 35
01:26:52.207 : :Chapter 36
01:30:57.410 : :Chapter 37
01:34:59.235 : :Chapter 38
01:36:42.129 : :Chapter 39
01:40:55.632 : :Chapter 40
01:43:44.176 : :Chapter 41
[teatrix.ru].t19416.torrent 
Торрент: Зарегистрирован [ 2016-03-18 12:36 ] · BE4EDC4A7D1C7E9C8A04B539CF1944931BF2C652

Скачать .torrent

Скачать

15 KB

Статус: проверено
Скачан: 0 раз
Размер: 2.9 GB
terms.php



Быстрый ответ

Имя:

      
Для отправки сообщений необходимо включить JavaScript
Показать сообщения:    

Текущее время: 06-Дек 22:52

Часовой пояс: UTC + 3


Вы можете начинать темы
Вы можете отвечать на сообщения
Вы не можете редактировать свои сообщения
Вы не можете удалять свои сообщения
Вы не можете голосовать в опросах
Вы не можете прикреплять файлы к сообщениям
Вы можете скачивать файлы