(Classical) [LP] [24/48] Дирижер Борис Хайкин - Из Сокровищницы Мирового Исполнительского Искусства (А. Рубинштейн, А. Глазунов, А. Ponchielli, С. Gounod, J. Brahms) - 1980, FLAC (tracks+.cue)


Статистика раздачи [Обновить пиров]
Размер:  441 MB   |    Зарегистрирован:  8 месяцев 17 дней   |    Скачан:  0 раз

Полного источника не было: Никогда

 
   
 
 
 

[Цитировать]

Дирижер Борис Хайкин - Из Сокровищницы Мирового Исполнительского Искусства
Жанр: Classical
Носитель: LP
Год выпуска: 1980
Лейбл: Melodya
Страна-производитель: USSR
Аудио кодек: FLAC
Тип рипа: tracks+.cue
Формат записи: 32/192
Формат раздачи: 24/48
Продолжительность: 39.08 min
Треклист:
01. А. Рубинштейн - Лезгинка
02. А. Глазунов - Торжественное шествие
03. А. Понкьелли - Танец часов
04. Л. Боккерини - Менуэт
05. Ш. Гуно - Вальс
06. И. Брамс - Венгерские танцы - 17
07. И. Брамс - Венгерские танцы - 18
08. И. Брамс - Венгерские танцы - 19
09. И. Брамс - Венгерские танцы - 20
10. И. Брамс - Венгерские танцы - 21
Оркестр большого театра СССР (1,3-5)
Большой симфонический оркестр центрального телевидения и всесоюзного радио (2,6)
Источник оцифровки: автором раздачи
Код класса состояния винила: Mint
Устройство воспроизведения: Электроника ЭП 017С
Головка звукоснимателя: Audio-Technica AT95
Предварительный усилитель: Бриг-001
АЦП: VIA HD audio device
Программа-оцифровщик: Izotope RX III Advanced
Обработка: Manual

Спектр+АЧХ+Уровень записи


DR=13

foobar2000 1.1.10 / Dynamic Range Meter 1.1.1
log date: 2014-11-08 17:56:17
--------------------------------------------------------------------------------
Analyzed: Boris Khaikin / Conductor
--------------------------------------------------------------------------------
DR Peak RMS Duration Track
--------------------------------------------------------------------------------
DR13 -1.41 dB -18.55 dB 6:33 ?-A.Rubinstein - Lezghinka
DR13 -1.03 dB -19.56 dB 3:22 ?-A.Glazunov - Triumphal Procession
DR15 -1.89 dB -23.27 dB 10:10 ?-A.Ponchielli - Dance Of The Hours
DR15 -4.36 dB -23.94 dB 3:19 ?-L.Boccherini - Minuet
DR13 -0.23 dB -19.83 dB 5:17 ?-Ch.Gounod - Waltz
DR13 -1.24 dB -20.43 dB 3:08 ?-J.Brams - Hungarian Dances - 17
DR12 -1.47 dB -18.12 dB 1:28 ?-J.Brams - Hungarian Dances - 18
DR13 -1.64 dB -19.90 dB 1:58 ?-J.Brams - Hungarian Dances - 19
DR13 -2.19 dB -21.45 dB 2:32 ?-J.Brams - Hungarian Dances - 20
DR12 -1.03 dB -19.09 dB 1:22 ?-J.Brams - Hungarian Dances - 21
--------------------------------------------------------------------------------
Number of tracks: 10
Official DR value: DR13
Samplerate: 48000 Hz
Channels: 2
Bits per sample: 24
Bitrate: 1633 kbps
Codec: FLAC
================================================================================

Back,Inner & Disc





[teatrix.ru].t19417.torrent 
Торрент: Зарегистрирован [ 2016-03-18 12:36 ] · D17D5936D8A29A37B53D4F907D29396825DD5A28

Скачать .torrent

Скачать

19 KB

Статус: проверено
Скачан: 0 раз
Размер: 441 MB
terms.php



Быстрый ответ

Имя:

      
Для отправки сообщений необходимо включить JavaScript
Показать сообщения:    

Текущее время: 05-Дек 01:26

Часовой пояс: UTC + 3


Вы можете начинать темы
Вы можете отвечать на сообщения
Вы не можете редактировать свои сообщения
Вы не можете удалять свои сообщения
Вы не можете голосовать в опросах
Вы не можете прикреплять файлы к сообщениям
Вы можете скачивать файлы