(Opera) Strauss - Arabella (Schnapka, Ludwig, Muszely, Hammes, Beresford, Brokmeier - Orchestra e Coro del Teatro La Fenice, Von Zallinger) - 1997, APE (image+.cue) lossless


 

[Цитировать]

Richard Strauss (1864-1949) - Arabella op.79
Жанр: Opera
Страна-производитель диска: EU
Год издания диска: 1997
Издатель (лейбл): Mondo Musica
Номер по каталогу: MFOH 10051
Дата записи: 1966
Аудиокодек: APE
Тип рипа: image+.cue
Битрейт аудио: lossless
Продолжительность: 58'36+43'20+42'10
Источник: собственный рип
Наличие сканов в содержимом раздачи: да
Треклист:
CD1
1. Erster Aufzug: Salon In Einem Wiener Stadthotel
CD2
1. Zweiter Aufzug: Ein Offentlicher Ballsaal
CD3
1. Dritter Aufzug: Offener Raum Mit Stiegenhaus Im Hotel
Исполнители:
Richard Strauss (1864-1949) - Arabella op.79
Lyrische Komödie in drei Aufzügen von Hugo von Hofmannsthal
Il Conte Walduer - Georg Schnapka
Adelaide - Hanna Ludwig
Arabella - Elitta Muszely
Ioro figlie - Iselotte Hammes
Mandrika - Hugh Beresford
Matteo - Willy Brokmeier
Il conte Elemer - Georg Paskuda
Il conte Dominik - Lexander Malta
Il conte Lamoral - Erwin Abel
Orchestra e Coro del Teatro La Fenice
Meinhard Von Zallinger, conductor

Лог создания рипа

CD1

Exact Audio Copy V1.0 beta 3 from 29. August 2011
EAC extraction logfile from 11. November 2014, 11:57
Strauss / Arabella, von Zallinger CD1
Used drive : TSSTcorpCDDVDW SE-208AB Adapter: 1 ID: 0
Read mode : Secure
Utilize accurate stream : Yes
Defeat audio cache : Yes
Make use of C2 pointers : No
Read offset correction : 6
Overread into Lead-In and Lead-Out : No
Fill up missing offset samples with silence : Yes
Delete leading and trailing silent blocks : No
Null samples used in CRC calculations : Yes
Used interface : Native Win32 interface for Win NT & 2000
Used output format : Monkey's Audio Lossless Encoder
Selected bitrate : High Lossless Compression
Quality : High
Add ID3 tag : Yes
Command line compressor : C:\Program Files (x86)\Exact Audio Copy\MAC\MAC.exe
TOC of the extracted CD
Track | Start | Length | Start sector | End sector
---------------------------------------------------------
1 | 0:00.00 | 58:35.69 | 0 | 263693
Range status and errors
Selected range
Filename D:\EAC\Strauss - Arabella, von Zallinger CD1.wav
Peak level 73.1 %
Extraction speed 1.9 X
Range quality 100.0 %
Test CRC AD011B13
Copy CRC AD011B13
Copy OK
No errors occurred
AccurateRip summary
Track 1 cannot be verified as accurate (confidence 1) [CB2AF298], AccurateRip returned [F017A452] (AR v2)
No tracks could be verified as accurate
You may have a different pressing from the one(s) in the database
End of status report
---- CUETools DB Plugin V2.1.3
[CTDB TOCID: AKGyo0EeWhzn3crsqEaHCMcQ6q4-] disk not present in database, Submit result: AKGyo0EeWhzn3crsqEaHCMcQ6q4- has been uploaded
==== Log checksum B7D4BBEA2A19391BA2E121617D274690572F4ECB9F85BFB4EB01EF7A5C77632C ====

CD2

Exact Audio Copy V1.0 beta 3 from 29. August 2011
EAC extraction logfile from 8. November 2014, 12:00
Strauss / Arabella, von Zallinger CD2
Used drive : TS8XDVDSTRANSCEND Adapter: 1 ID: 1
Read mode : Secure
Utilize accurate stream : Yes
Defeat audio cache : Yes
Make use of C2 pointers : No
Read offset correction : 6
Overread into Lead-In and Lead-Out : No
Fill up missing offset samples with silence : Yes
Delete leading and trailing silent blocks : No
Null samples used in CRC calculations : Yes
Used interface : Native Win32 interface for Win NT & 2000
Used output format : Monkey's Audio Lossless Encoder
Selected bitrate : High Lossless Compression
Quality : High
Add ID3 tag : Yes
Command line compressor : C:\Program Files (x86)\Exact Audio Copy\MAC\MAC.exe
TOC of the extracted CD
Track | Start | Length | Start sector | End sector
---------------------------------------------------------
1 | 0:00.00 | 43:20.29 | 0 | 195028
Range status and errors
Selected range
Filename D:\EAC\Strauss - Arabella, von Zallinger CD2.wav
Peak level 78.0 %
Extraction speed 1.7 X
Range quality 100.0 %
Test CRC A4875E44
Copy CRC A4875E44
Copy OK
No errors occurred
AccurateRip summary
Track 1 accurately ripped (confidence 1) [CAD8C041] (AR v2)
All tracks accurately ripped
End of status report
---- CUETools DB Plugin V2.1.3
[CTDB TOCID: wql78qiEnis5AxoBtW34LNErAeE-] disk not present in database, Submit result: unrecognized or virtual drive
==== Log checksum A93A20896B7F6674AE10A581B17ECD5C05EFDC42ADBD1B0931F9B996003B063F ====

CD3

Exact Audio Copy V1.0 beta 3 from 29. August 2011
EAC extraction logfile from 8. November 2014, 11:54
Strauss / Arabella, von Zallinger CD3
Used drive : TSSTcorpCDDVDW SE-208AB Adapter: 1 ID: 0
Read mode : Secure
Utilize accurate stream : Yes
Defeat audio cache : Yes
Make use of C2 pointers : No
Read offset correction : 6
Overread into Lead-In and Lead-Out : No
Fill up missing offset samples with silence : Yes
Delete leading and trailing silent blocks : No
Null samples used in CRC calculations : Yes
Used interface : Native Win32 interface for Win NT & 2000
Used output format : Monkey's Audio Lossless Encoder
Selected bitrate : High Lossless Compression
Quality : High
Add ID3 tag : Yes
Command line compressor : C:\Program Files (x86)\Exact Audio Copy\MAC\MAC.exe
TOC of the extracted CD
Track | Start | Length | Start sector | End sector
---------------------------------------------------------
1 | 0:00.00 | 42:10.26 | 0 | 189775
Range status and errors
Selected range
Filename D:\EAC\Strauss - Arabella, von Zallinger CD3.wav
Peak level 70.4 %
Extraction speed 1.7 X
Range quality 100.0 %
Test CRC 4F3657CE
Copy CRC 4F3657CE
Copy OK
No errors occurred
AccurateRip summary
Track 1 accurately ripped (confidence 1) [78D46987] (AR v2)
All tracks accurately ripped
End of status report
---- CUETools DB Plugin V2.1.3
[CTDB TOCID: FvLMLndl3NNmhl0ztGCF1W.8yZE-] disk not present in database, Submit result: FvLMLndl3NNmhl0ztGCF1W.8yZE- has been uploaded
==== Log checksum 9BCEE9D01AA92AB2B90A1CC3CA8C8CD8C881666C9612E16233C7C83062B70BC0 ====

Содержание индексной карты (.CUE)

CD1

REM GENRE Opera
REM DATE 1997
REM DISCID 020DBB01
REM COMMENT "ExactAudioCopy v1.0b3"
PERFORMER "Strauss "
TITLE "Arabella, von Zallinger CD1"
FILE "Strauss - Arabella, von Zallinger CD1.ape" WAVE
TRACK 01 AUDIO
TITLE "Erster Aufzug: Salon in einem Wiener Stadthotel"
PERFORMER "Strauss "
INDEX 01 00:00:00

CD2

REM GENRE Opera
REM DATE 1997
REM DISCID 020A2801
REM COMMENT "ExactAudioCopy v1.0b3"
PERFORMER "Strauss"
TITLE "Arabella, von Zallinger CD2"
FILE "Strauss - Arabella, von Zallinger CD2.ape" WAVE
TRACK 01 AUDIO
TITLE "Zweiter Aufzug: Ein öffentlicher Ballsahl"
PERFORMER "Strauss"
INDEX 01 00:00:00

CD3

REM GENRE Opera
REM DATE 1997
REM DISCID 0209E201
REM COMMENT "ExactAudioCopy v1.0b3"
PERFORMER "Strauss"
TITLE "Arabella, von Zallinger CD3"
FILE "Strauss - Arabella, von Zallinger CD3.ape" WAVE
TRACK 01 AUDIO
TITLE "Zweiter Aufzug: Offener Raum mit Stiegenhaus im Hotel"
PERFORMER "Strauss"
INDEX 01 00:00:00



Показать сообщения:    

Текущее время: 02-Дек 21:10

Часовой пояс: UTC + 3


Вы не можете начинать темы
Вы не можете отвечать на сообщения
Вы не можете редактировать свои сообщения
Вы не можете удалять свои сообщения
Вы не можете голосовать в опросах
Вы не можете прикреплять файлы к сообщениям
Вы не можете скачивать файлы