(classical choral sacred)J.S. Bach - Solo Cantatas for alto, for bass, German Cantatas (BWV 82, BWV 56, BWV 158, BWV170, BWV54, BWV35) - Philippe Herreweghe - 2007, FLAC (tracks+.cue) lossless


Статистика раздачи [Обновить пиров]
Размер:  802 MB   |    Зарегистрирован:  8 месяцев 18 дней   |    Скачан:  0 раз

Полного источника не было: Никогда

Личеров:  15  [  0 KB/s  ]   Подробная статистика пиров
 
   
 
 
 

[Цитировать]

Bach Philippe Herreweghe Solo Cantatas for alto, for bass, German Cantatas before Bach Жанр: classical choral sacred
Страна-производитель диска: France
Год издания диска: 2007
Издатель (лейбл): Harmonia Mundi
Номер по каталогу: HML 5908372.74
Дата записи: 1997 -1999
Аудиокодек: FLAC
Тип рипа: tracks+.cue
Битрейт аудио: lossless
Продолжительность: 03:15:20
Источник: релизер
сайт-источник/ник/другое: вата shinkibo
Наличие сканов в содержимом раздачи: да
Треклист:
CD1 Cantatas for Solo bass
Cantate "Ich habe Genug", BWV 82
01. Aria - Ich habe Genug 07:26
02.Recitativo - Ich habe Genug 01:02
03. Aria - Schlummert ein 09:39
04. Recitativo - Mein Gott 00:43
05. Aria - Ich freue mich 03:43
Cantate "Ich will den Kreutzstab gerne tragen", BWV 56
06. Aria - Ich will den Kreutzstab gerne tragen 06:55
07. Recitativo - Mein Wandel auf der Welt 01:52
08 Aria - Endlich, Endlich wird mein Joch 06:45
09. Recitativo - Ich stehe fertig 01:26
10. Choral - Komm, o Tod 01:29
Cantate "Der Friede sei mit dir", BWV 158
11. Recitativo - Der Friede sei mit dir 01:44
12. Aria con Corale - Welt, ade 06:52
13. Recitativo - Nun Herr 01:25
14. Choral - Hier ist das rechte Osterlamm 01:20
CD2 Cantatas for Solo alto
Cantata "Vergnugte Ruh, Beliebte Seelenlust", BWV170
01. Aria: Vergnugte Ruh! beliebte Seelenlust! 06:44
02. Recitativo: Die Welt, das Sundenhaus 01:25
03. Aria: Wie jammern mich doch die verkehrten Herzen 07:58
04. Recitativo: Wer sollte sich demnach 01:11
05. Aria: Mir ekelt mehr zu leben 05:43
Cantata "Widerstehe Doch Der Sunde", BWV54
06. Aria: Wilderstehe doch der Sunde 06:58
07. Recitativo: Die Art verruchter Sunden 01:09
08. Aria: Wer Sunde tut, der ist vom Teufel 03:07
Cantata "Geist Und Seele Wird Verwirret", BWV35
09. Concerto 05:39
10. Aria: Geist und Seele wird verwirret 07:19
11. Recitativo: Ich wundre mich 01:19
12. Aria: Gott hat alles wohlgemacht! 03:14
13. Sinfonia 03:27
14. Recitativo: Ach, starker Gott, lass mich 01:01
15. Aria: Ich wunsche nur bei Gott zu Leben 03:04
CD3 German Cantatas before Bach
Dominus illuminatio mea
01. I. Sinfonia 00:44
02. II. Chor; Dominus illuminatio mea 00:50
03. III. Chor; Dominus protector vitae meae 02:47
04.IV. Chor; Qui tribulant inimici mei 01:37
05. V. Solo und Chor; Si consistant adversum me castra 03:05
Wend' ab deinem Zorn
06. I. Wend' ab deinen Zorn 01:47
07 II. Denn so du wolltest nach Verdienst 01:12
08 III. Vergieb, Herr, gnädig, unsre große Schulde 02:00
09 IV. Sind wir doch arme Würmlein 01:19
10. V. Sieh' an deines Sohn's Kreuz und bitter Leiden 01:57
11. VI. Darum, ach Vater, laß uns nicht verderben 03:04
12.Ein feste Burg ist unser Gott - I. Sinfonia 01:29
13.I. Ein feste Burg ist unser Gott 01:58
14.II. Ein feste Burg ist unser Gott - Mit unsrer Macht ist nichts gethan 03:29
15.III. Ein feste Burg ist unser Gott - Und wenn die Welt voll Teufel wär 04:58
16.I. Sonate und Chor; Gott, sei mir gnädig 02:11
17.II. Arie; Wasche mich wohl 01:16
18.III. Rezitativ; Denn ich erkenne meine Missetat 00:26
19.IV. Rezitativ und Chor; An dir allein, hab ich gesündigt 01:44
20.V. Arioso; Siehe, ich bin aus sündlichem Samen gezeuget 01:48
21.VI. Chor; Entsündige mich mit Isopen 01:00
22.VII. Arioso und Chor; Laß mich hören Freud und Wonne 02:47
23.I. Sinfonia und Chor; Ich liege und schlafe 04:47
24.II. Arie; Ich hab, Gottlob, das mein vollbracht 01:46
25.III. Ritornello 01:44
26.IV. Duett; In Jesu Namen schlaf ich ein 01:49
27.V. Ritornello 00:39
28.VI. Arie; In Jesu Namen fahr ich hin 02:02
29.VII. Sinfonia und Chor; Ich liege und schlafe 03:43
30.I. Chor; Herr, die Wasserströme erheben sich 01:42
31.II. Rezitativ; Ach Christi Schiffchen leidet Not 00:52
32.III. Arie; Ach, wie lange soll der kleinen Herde bange 04:11
33.IV. Rezitativ; So schwach ist oft des Glaubens Licht 00:47
34.V. Arie; Jesus hemmt die stolzen Wellen 04:11
35.VI. Rezitativ; So fasse dich, du kleine Schaar 00:54
36.VII. Choral; Was bist du so hochbetrübet 02:59
Исполнители:
Philippe Herreweghe, Conductor
La Chapelle Royale, Early music ensemble
Collegium Vocale Gent, Early music ensemble
Andreas Scholl, Countertenor
Peter Kooy, Bass
Deborah York, Soprano

CD1Лог создания рипа

Exact Audio Copy V1.0 beta 3 from 29. August 2011
EAC extraction logfile from 7. November 2014, 15:56
Philippe Herreweghe, Andreas Scholl, Peter Kooy / Solo Cantatas & German Cantatas before Bach
Used drive : hp DVD-RAM GHB0N Adapter: 0 ID: 0
Read mode : Secure
Utilize accurate stream : Yes
Defeat audio cache : Yes
Make use of C2 pointers : No
Read offset correction : 6
Overread into Lead-In and Lead-Out : No
Fill up missing offset samples with silence : Yes
Delete leading and trailing silent blocks : No
Null samples used in CRC calculations : Yes
Used interface : Native Win32 interface for Win NT & 2000
Gap handling : Appended to previous track
Used output format : User Defined Encoder
Selected bitrate : 1024 kBit/s
Quality : High
Add ID3 tag : No
Command line compressor : C:\Program Files (x86)\Exact Audio Copy\Flac\flac.exe
Additional command line options : -8 -V -T "ARTIST=%artist%" -T "TITLE=%title%" -T "ALBUM=%albumtitle%" -T "DATE=%year%" -T "TRACKNUMBER=%tracknr%" -T "GENRE=%genre%" -T "PERFORMER=%albuminterpret%" -T "COMPOSER=%composer%" %haslyrics%--tag-from-file=LYRICS="%lyricsfile%"%haslyrics% -T "ALBUMARTIST=%albumartist%" -T "DISCNUMBER=%cdnumber%" -T "TOTALDISCS=%totalcds%" -T "TOTALTRACKS=%numtracks%" -T "COMMENT=%comment%" %source% -o %dest%
TOC of the extracted CD
Track | Start | Length | Start sector | End sector
---------------------------------------------------------
1 | 0:00.32 | 7:25.63 | 32 | 33469
2 | 7:26.20 | 1:01.72 | 33470 | 38116
3 | 8:28.17 | 9:38.60 | 38117 | 81526
4 | 18:07.02 | 0:43.13 | 81527 | 84764
5 | 18:50.15 | 3:42.60 | 84765 | 101474
6 | 22:33.00 | 6:55.35 | 101475 | 132634
7 | 29:28.35 | 1:52.15 | 132635 | 141049
8 | 31:20.50 | 6:44.50 | 141050 | 171399
9 | 38:05.25 | 1:26.12 | 171400 | 177861
10 | 39:31.37 | 1:29.35 | 177862 | 184571
11 | 41:00.72 | 1:43.58 | 184572 | 192354
12 | 42:44.55 | 6:51.50 | 192355 | 223229
13 | 49:36.30 | 1:25.17 | 223230 | 229621
14 | 51:01.47 | 1:19.40 | 229622 | 235586
Track 1
Filename E:\WHAT.CD\RIP EN COURS\Bach - Solo Cantatas & German Cantatas before Bach - Herregeghe - 2010 [FLAC]\cd1\01 - Cantate ''Ich habe Genug'', BWV 82 - Aria - Ich habe Genug.wav
Pre-gap length 0:00:02.42
Peak level 77.8 %
Extraction speed 1.1 X
Track quality 99.9 %
Test CRC F5D5131E
Copy CRC F5D5131E
Accurately ripped (confidence 14) [16F2E75B] (AR v2)
Copy OK
Track 2
Filename E:\WHAT.CD\RIP EN COURS\Bach - Solo Cantatas & German Cantatas before Bach - Herregeghe - 2010 [FLAC]\cd1\02 - Cantate ''Ich habe Genug'', BWV 82 - Recitativo - Ich habe Genug.wav
Peak level 54.8 %
Extraction speed 0.8 X
Track quality 100.0 %
Test CRC 67E663DE
Copy CRC 67E663DE
Accurately ripped (confidence 14) [1C598DF0] (AR v2)
Copy OK
Track 3
Filename E:\WHAT.CD\RIP EN COURS\Bach - Solo Cantatas & German Cantatas before Bach - Herregeghe - 2010 [FLAC]\cd1\03 - Cantate ''Ich habe Genug'', BWV 82 - Aria - Schlummert ein.wav
Peak level 87.4 %
Extraction speed 1.4 X
Track quality 100.0 %
Test CRC AB150A75
Copy CRC AB150A75
Accurately ripped (confidence 14) [078D7869] (AR v2)
Copy OK
Track 4
Filename E:\WHAT.CD\RIP EN COURS\Bach - Solo Cantatas & German Cantatas before Bach - Herregeghe - 2010 [FLAC]\cd1\04 - Cantate ''Ich habe Genug'', BWV 82 - Recitativo - Mein Gott.wav
Peak level 43.1 %
Extraction speed 0.6 X
Track quality 99.7 %
Test CRC 1BBB96B5
Copy CRC 1BBB96B5
Accurately ripped (confidence 14) [B2AC6A5E] (AR v2)
Copy OK
Track 5
Filename E:\WHAT.CD\RIP EN COURS\Bach - Solo Cantatas & German Cantatas before Bach - Herregeghe - 2010 [FLAC]\cd1\05 - Cantate ''Ich habe Genug'', BWV 82 - Aria - Ich freue mich.wav
Peak level 75.2 %
Extraction speed 1.5 X
Track quality 100.0 %
Test CRC 999E1BC5
Copy CRC 999E1BC5
Accurately ripped (confidence 14) [799D3904] (AR v2)
Copy OK
Track 6
Filename E:\WHAT.CD\RIP EN COURS\Bach - Solo Cantatas & German Cantatas before Bach - Herregeghe - 2010 [FLAC]\cd1\06 - Cantate ''Ich will den Kreutzstab gerne tragen'', BWV 56 - Aria - Ich will den Kreutzstab gerne tragen.wav
Pre-gap length 0:00:05.64
Peak level 69.0 %
Extraction speed 1.7 X
Track quality 100.0 %
Test CRC 1B0AB224
Copy CRC 1B0AB224
Accurately ripped (confidence 14) [2BA522E2] (AR v2)
Copy OK
Track 7
Filename E:\WHAT.CD\RIP EN COURS\Bach - Solo Cantatas & German Cantatas before Bach - Herregeghe - 2010 [FLAC]\cd1\07 - Cantate ''Ich will den Kreutzstab gerne tragen'', BWV 56 - Recitativo - Mein Wandel auf der Welt.wav
Peak level 76.8 %
Extraction speed 1.2 X
Track quality 99.9 %
Test CRC 5887D7B4
Copy CRC 5887D7B4
Accurately ripped (confidence 14) [06892386] (AR v2)
Copy OK
Track 8
Filename E:\WHAT.CD\RIP EN COURS\Bach - Solo Cantatas & German Cantatas before Bach - Herregeghe - 2010 [FLAC]\cd1\08 - Cantate ''Ich will den Kreutzstab gerne tragen'', BWV 56 - Aria - Endlich, Endlich wird mein Joch.wav
Peak level 80.8 %
Extraction speed 1.9 X
Track quality 100.0 %
Test CRC B46018C7
Copy CRC B46018C7
Accurately ripped (confidence 14) [4A08A683] (AR v2)
Copy OK
Track 9
Filename E:\WHAT.CD\RIP EN COURS\Bach - Solo Cantatas & German Cantatas before Bach - Herregeghe - 2010 [FLAC]\cd1\09 - Cantate ''Ich will den Kreutzstab gerne tragen'', BWV 56 - Recitativo - Ich stehe fertig.wav
Peak level 58.0 %
Extraction speed 1.5 X
Track quality 100.0 %
Test CRC CF82F15F
Copy CRC CF82F15F
Accurately ripped (confidence 14) [49FDFD54] (AR v2)
Copy OK
Track 10
Filename E:\WHAT.CD\RIP EN COURS\Bach - Solo Cantatas & German Cantatas before Bach - Herregeghe - 2010 [FLAC]\cd1\10 - Cantate ''Ich will den Kreutzstab gerne tragen'', BWV 56 - Choral - Komm, o Tod.wav
Peak level 72.7 %
Extraction speed 1.5 X
Track quality 100.0 %
Test CRC 8AF92217
Copy CRC 8AF92217
Accurately ripped (confidence 14) [ED921FD0] (AR v2)
Copy OK
Track 11
Filename E:\WHAT.CD\RIP EN COURS\Bach - Solo Cantatas & German Cantatas before Bach - Herregeghe - 2010 [FLAC]\cd1\11 - Cantate ''Der Friede sei mit dir'', BWV 158 - Recitativo - Der Friede sei mit dir.wav
Pre-gap length 0:00:05.13
Peak level 76.7 %
Extraction speed 1.6 X
Track quality 100.0 %
Test CRC C5BF3015
Copy CRC C5BF3015
Accurately ripped (confidence 14) [4F3D10E0] (AR v2)
Copy OK
Track 12
Filename E:\WHAT.CD\RIP EN COURS\Bach - Solo Cantatas & German Cantatas before Bach - Herregeghe - 2010 [FLAC]\cd1\12 - Cantate ''Der Friede sei mit dir'', BWV 158 - Aria con Corale - Welt, ade.wav
Peak level 91.0 %
Extraction speed 1.9 X
Track quality 99.9 %
Test CRC 0785F705
Copy CRC 0785F705
Accurately ripped (confidence 14) [4C0960C4] (AR v2)
Copy OK
Track 13
Filename E:\WHAT.CD\RIP EN COURS\Bach - Solo Cantatas & German Cantatas before Bach - Herregeghe - 2010 [FLAC]\cd1\13 - Cantate ''Der Friede sei mit dir'', BWV 158 - Recitativo - Nun Herr.wav
Peak level 68.2 %
Extraction speed 1.6 X
Track quality 100.0 %
Test CRC C170384D
Copy CRC C170384D
Accurately ripped (confidence 14) [B7C997AC] (AR v2)
Copy OK
Track 14
Filename E:\WHAT.CD\RIP EN COURS\Bach - Solo Cantatas & German Cantatas before Bach - Herregeghe - 2010 [FLAC]\cd1\14 - Cantate ''Der Friede sei mit dir'', BWV 158 - Choral - Hier ist das rechte Osterlamm.wav
Peak level 59.5 %
Extraction speed 1.6 X
Track quality 100.0 %
Test CRC 65AF5A80
Copy CRC 65AF5A80
Accurately ripped (confidence 13) [DFED14B8] (AR v2)
Copy OK
All tracks accurately ripped
No errors occurred
End of status report
==== Log checksum C3199C256760D92009C0DED8218B9200F55CD9C323FD19CF464B4411548C2DD0 ====

Содержание индексной карты (.CUE)

REM GENRE Classical
REM DATE 1991
REM DISCID CA0C450E
REM COMMENT "ExactAudioCopy v1.0b3"
PERFORMER "Philippe Herreweghe, Andreas Scholl, Peter Kooy"
TITLE "Solo Cantatas & German Cantatas before Bach"
FILE "01 - Cantate ''Ich habe Genug'', BWV 82 - Aria - Ich habe Genug.wav" WAVE
TRACK 01 AUDIO
TITLE "Cantate 'Ich habe Genug', BWV 82 - Aria - Ich habe Genug"
PERFORMER "Philippe Herreweghe, Andreas Scholl, Peter Kooy"
PREGAP 00:00:32
INDEX 01 00:00:00
FILE "02 - Cantate ''Ich habe Genug'', BWV 82 - Recitativo - Ich habe Genug.wav" WAVE
TRACK 02 AUDIO
TITLE "Cantate 'Ich habe Genug', BWV 82 - Recitativo - Ich habe Genug"
PERFORMER "Philippe Herreweghe, Andreas Scholl, Peter Kooy"
INDEX 01 00:00:00
FILE "03 - Cantate ''Ich habe Genug'', BWV 82 - Aria - Schlummert ein.wav" WAVE
TRACK 03 AUDIO
TITLE "Cantate 'Ich habe Genug', BWV 82 - Aria - Schlummert ein"
PERFORMER "Philippe Herreweghe, Andreas Scholl, Peter Kooy"
INDEX 01 00:00:00
FILE "04 - Cantate ''Ich habe Genug'', BWV 82 - Recitativo - Mein Gott.wav" WAVE
TRACK 04 AUDIO
TITLE "Cantate 'Ich habe Genug', BWV 82 - Recitativo - Mein Gott"
PERFORMER "Philippe Herreweghe, Andreas Scholl, Peter Kooy"
INDEX 01 00:00:00
FILE "05 - Cantate ''Ich habe Genug'', BWV 82 - Aria - Ich freue mich.wav" WAVE
TRACK 05 AUDIO
TITLE "Cantate 'Ich habe Genug', BWV 82 - Aria - Ich freue mich"
PERFORMER "Philippe Herreweghe, Andreas Scholl, Peter Kooy"
INDEX 01 00:00:00
TRACK 06 AUDIO
TITLE "Cantate 'Ich will den Kreutzstab gerne tragen', BWV 56 - Aria - Ich will den ..."
PERFORMER "Philippe Herreweghe, Andreas Scholl, Peter Kooy"
INDEX 00 03:37:12
FILE "06 - Cantate ''Ich will den Kreutzstab gerne tragen'', BWV 56 - Aria - Ich will den Kreutzstab gerne tragen.wav" WAVE
INDEX 01 00:00:00
FILE "07 - Cantate ''Ich will den Kreutzstab gerne tragen'', BWV 56 - Recitativo - Mein Wandel auf der Welt.wav" WAVE
TRACK 07 AUDIO
TITLE "Cantate 'Ich will den Kreutzstab gerne tragen', BWV 56 - Recitativo - Mein Wa..."
PERFORMER "Philippe Herreweghe, Andreas Scholl, Peter Kooy"
INDEX 01 00:00:00
FILE "08 - Cantate ''Ich will den Kreutzstab gerne tragen'', BWV 56 - Aria - Endlich, Endlich wird mein Joch.wav" WAVE
TRACK 08 AUDIO
TITLE "Cantate 'Ich will den Kreutzstab gerne tragen', BWV 56 - Aria - Endlich, Endl..."
PERFORMER "Philippe Herreweghe, Andreas Scholl, Peter Kooy"
INDEX 01 00:00:00
FILE "09 - Cantate ''Ich will den Kreutzstab gerne tragen'', BWV 56 - Recitativo - Ich stehe fertig.wav" WAVE
TRACK 09 AUDIO
TITLE "Cantate 'Ich will den Kreutzstab gerne tragen', BWV 56 - Recitativo - Ich ste..."
PERFORMER "Philippe Herreweghe, Andreas Scholl, Peter Kooy"
INDEX 01 00:00:00
FILE "10 - Cantate ''Ich will den Kreutzstab gerne tragen'', BWV 56 - Choral - Komm, o Tod.wav" WAVE
TRACK 10 AUDIO
TITLE "Cantate 'Ich will den Kreutzstab gerne tragen', BWV 56 - Choral - Komm, o Tod"
PERFORMER "Philippe Herreweghe, Andreas Scholl, Peter Kooy"
INDEX 01 00:00:00
TRACK 11 AUDIO
TITLE "Cantate 'Der Friede sei mit dir', BWV 158 - Recitativo - Der Friede sei mit dir"
PERFORMER "Philippe Herreweghe, Andreas Scholl, Peter Kooy"
INDEX 00 01:24:25
FILE "11 - Cantate ''Der Friede sei mit dir'', BWV 158 - Recitativo - Der Friede sei mit dir.wav" WAVE
INDEX 01 00:00:00
FILE "12 - Cantate ''Der Friede sei mit dir'', BWV 158 - Aria con Corale - Welt, ade.wav" WAVE
TRACK 12 AUDIO
TITLE "Cantate 'Der Friede sei mit dir', BWV 158 - Aria con Corale - Welt, ade"
PERFORMER "Philippe Herreweghe, Andreas Scholl, Peter Kooy"
INDEX 01 00:00:00
FILE "13 - Cantate ''Der Friede sei mit dir'', BWV 158 - Recitativo - Nun Herr.wav" WAVE
TRACK 13 AUDIO
TITLE "Cantate 'Der Friede sei mit dir', BWV 158 - Recitativo - Nun Herr"
PERFORMER "Philippe Herreweghe, Andreas Scholl, Peter Kooy"
INDEX 01 00:00:00
FILE "14 - Cantate ''Der Friede sei mit dir'', BWV 158 - Choral - Hier ist das rechte Osterlamm.wav" WAVE
TRACK 14 AUDIO
TITLE "Cantate 'Der Friede sei mit dir', BWV 158 - Choral - Hier ist das rechte Oste..."
PERFORMER "Philippe Herreweghe, Andreas Scholl, Peter Kooy"
INDEX 01 00:00:00

CD2Лог создания рипа

Exact Audio Copy V1.0 beta 3 from 29. August 2011
EAC extraction logfile from 7. November 2014, 16:54
Philippe Herreweghe, Andreas Scholl, Peter Kooy / Solo Cantatas & German Cantatas before Bach
Used drive : hp DVD-RAM GHB0N Adapter: 0 ID: 0
Read mode : Secure
Utilize accurate stream : Yes
Defeat audio cache : Yes
Make use of C2 pointers : No
Read offset correction : 6
Overread into Lead-In and Lead-Out : No
Fill up missing offset samples with silence : Yes
Delete leading and trailing silent blocks : No
Null samples used in CRC calculations : Yes
Used interface : Native Win32 interface for Win NT & 2000
Gap handling : Appended to previous track
Used output format : User Defined Encoder
Selected bitrate : 1024 kBit/s
Quality : High
Add ID3 tag : No
Command line compressor : C:\Program Files (x86)\Exact Audio Copy\Flac\flac.exe
Additional command line options : -8 -V -T "ARTIST=%artist%" -T "TITLE=%title%" -T "ALBUM=%albumtitle%" -T "DATE=%year%" -T "TRACKNUMBER=%tracknr%" -T "GENRE=%genre%" -T "PERFORMER=%albuminterpret%" -T "COMPOSER=%composer%" %haslyrics%--tag-from-file=LYRICS="%lyricsfile%"%haslyrics% -T "ALBUMARTIST=%albumartist%" -T "DISCNUMBER=%cdnumber%" -T "TOTALDISCS=%totalcds%" -T "TOTALTRACKS=%numtracks%" -T "COMMENT=%comment%" %source% -o %dest%
TOC of the extracted CD
Track | Start | Length | Start sector | End sector
---------------------------------------------------------
1 | 0:00.00 | 6:43.53 | 0 | 30277
2 | 6:43.53 | 1:24.73 | 30278 | 36650
3 | 8:08.51 | 7:58.33 | 36651 | 72533
4 | 16:07.09 | 1:10.69 | 72534 | 77852
5 | 17:18.03 | 5:42.38 | 77853 | 103540
6 | 23:00.41 | 6:58.30 | 103541 | 134920
7 | 29:58.71 | 1:08.42 | 134921 | 140062
8 | 31:07.38 | 3:06.39 | 140063 | 154051
9 | 34:14.02 | 5:39.36 | 154052 | 179512
10 | 39:53.38 | 7:19.01 | 179513 | 212438
11 | 47:12.39 | 1:19.11 | 212439 | 218374
12 | 48:31.50 | 3:14.03 | 218375 | 232927
13 | 51:45.53 | 3:27.09 | 232928 | 248461
14 | 55:12.62 | 1:00.49 | 248462 | 253010
15 | 56:13.36 | 3:04.31 | 253011 | 266841
Track 1
Filename E:\WHAT.CD\RIP EN COURS\Bach - Solo Cantatas & German Cantatas before Bach - Herregeghe - 2010 [FLAC]\cd2\01 - Cantata ''Vergnugte Ruh, Beliebte Seelenlust'', BWV170 - 1. Aria- Vergnugte Ruh! beliebte Seelenlust!.wav
Pre-gap length 0:00:02.00
Peak level 71.7 %
Extraction speed 1.8 X
Track quality 99.9 %
Test CRC B7359BE1
Copy CRC B7359BE1
Accurately ripped (confidence 13) [55F3C307] (AR v2)
Copy OK
Track 2
Filename E:\WHAT.CD\RIP EN COURS\Bach - Solo Cantatas & German Cantatas before Bach - Herregeghe - 2010 [FLAC]\cd2\02 - Cantata ''Vergnugte Ruh, Beliebte Seelenlust'', BWV170 - 2. Recitativo- Die Welt, das Sundenhaus.wav
Peak level 85.4 %
Extraction speed 1.2 X
Track quality 99.8 %
Test CRC 11CA7AA7
Copy CRC 11CA7AA7
Accurately ripped (confidence 13) [963A4AA9] (AR v2)
Copy OK
Track 3
Filename E:\WHAT.CD\RIP EN COURS\Bach - Solo Cantatas & German Cantatas before Bach - Herregeghe - 2010 [FLAC]\cd2\03 - Cantata ''Vergnugte Ruh, Beliebte Seelenlust'', BWV170 - 3. Aria- Wie jammern mich doch die verkehrten Herzen.wav
Peak level 96.5 %
Extraction speed 2.3 X
Track quality 99.9 %
Test CRC B2237B65
Copy CRC B2237B65
Accurately ripped (confidence 13) [A832AACB] (AR v2)
Copy OK
Track 4
Filename E:\WHAT.CD\RIP EN COURS\Bach - Solo Cantatas & German Cantatas before Bach - Herregeghe - 2010 [FLAC]\cd2\04 - Cantata ''Vergnugte Ruh, Beliebte Seelenlust'', BWV170 - 4. Recitativo- Wer sollte sich demnach.wav
Peak level 75.3 %
Extraction speed 1.8 X
Track quality 100.0 %
Test CRC 4B94D324
Copy CRC 4B94D324
Accurately ripped (confidence 13) [B46E818F] (AR v2)
Copy OK
Track 5
Filename E:\WHAT.CD\RIP EN COURS\Bach - Solo Cantatas & German Cantatas before Bach - Herregeghe - 2010 [FLAC]\cd2\05 - Cantata ''Vergnugte Ruh, Beliebte Seelenlust'', BWV170 - 5. Aria- Mir ekelt mehr zu leben.wav
Peak level 88.7 %
Extraction speed 2.6 X
Track quality 100.0 %
Test CRC 28B244F5
Copy CRC 28B244F5
Accurately ripped (confidence 13) [A44E27FA] (AR v2)
Copy OK
Track 6
Filename E:\WHAT.CD\RIP EN COURS\Bach - Solo Cantatas & German Cantatas before Bach - Herregeghe - 2010 [FLAC]\cd2\06 - Cantata ''Widerstehe Doch Der Sunde'', BWV54 - 1. Aria- Wilderstehe doch der Sunde.wav
Pre-gap length 0:00:09.18
Peak level 45.1 %
Extraction speed 3.0 X
Track quality 100.0 %
Test CRC E2204700
Copy CRC E2204700
Accurately ripped (confidence 13) [7BB1E61B] (AR v2)
Copy OK
Track 7
Filename E:\WHAT.CD\RIP EN COURS\Bach - Solo Cantatas & German Cantatas before Bach - Herregeghe - 2010 [FLAC]\cd2\07 - Cantata ''Widerstehe Doch Der Sunde'', BWV54 - 2. Recitativo- Die Art verruchter Sunden.wav
Peak level 54.9 %
Extraction speed 2.2 X
Track quality 100.0 %
Test CRC EBF80026
Copy CRC EBF80026
Accurately ripped (confidence 13) [96F08D55] (AR v2)
Copy OK
Track 8
Filename E:\WHAT.CD\RIP EN COURS\Bach - Solo Cantatas & German Cantatas before Bach - Herregeghe - 2010 [FLAC]\cd2\08 - Cantata ''Widerstehe Doch Der Sunde'', BWV54 - 3. Aria- Wer Sunde tut, der ist vom Teufel.wav
Peak level 46.1 %
Extraction speed 2.8 X
Track quality 100.0 %
Test CRC 9DEB5DAE
Copy CRC 9DEB5DAE
Accurately ripped (confidence 13) [D91E8ED8] (AR v2)
Copy OK
Track 9
Filename E:\WHAT.CD\RIP EN COURS\Bach - Solo Cantatas & German Cantatas before Bach - Herregeghe - 2010 [FLAC]\cd2\09 - Cantata ''Geist Und Seele Wird Verwirret'', BWV35 - 1. Concerto.wav
Pre-gap length 0:00:09.09
Peak level 66.5 %
Extraction speed 3.2 X
Track quality 100.0 %
Test CRC 1849DBE5
Copy CRC 1849DBE5
Accurately ripped (confidence 13) [4C333E21] (AR v2)
Copy OK
Track 10
Filename E:\WHAT.CD\RIP EN COURS\Bach - Solo Cantatas & German Cantatas before Bach - Herregeghe - 2010 [FLAC]\cd2\10 - Cantata ''Geist Und Seele Wird Verwirret'', BWV35 - 2. Aria- Geist und Seele wird verwirret.wav
Peak level 90.1 %
Extraction speed 3.5 X
Track quality 100.0 %
Test CRC 157DCD2D
Copy CRC 157DCD2D
Accurately ripped (confidence 13) [00615ABA] (AR v2)
Copy OK
Track 11
Filename E:\WHAT.CD\RIP EN COURS\Bach - Solo Cantatas & German Cantatas before Bach - Herregeghe - 2010 [FLAC]\cd2\11 - Cantata ''Geist Und Seele Wird Verwirret'', BWV35 - 3. Recitativo- Ich wundre mich.wav
Peak level 69.7 %
Extraction speed 2.7 X
Track quality 100.0 %
Test CRC 98A53392
Copy CRC 98A53392
Accurately ripped (confidence 13) [144F1CA6] (AR v2)
Copy OK
Track 12
Filename E:\WHAT.CD\RIP EN COURS\Bach - Solo Cantatas & German Cantatas before Bach - Herregeghe - 2010 [FLAC]\cd2\12 - Cantata ''Geist Und Seele Wird Verwirret'', BWV35 - 4. Aria- Gott hat alles wohlgemacht!.wav
Peak level 69.1 %
Extraction speed 3.3 X
Track quality 100.0 %
Test CRC 4B34F7DA
Copy CRC 4B34F7DA
Accurately ripped (confidence 12) [9D288252] (AR v2)
Copy OK
Track 13
Filename E:\WHAT.CD\RIP EN COURS\Bach - Solo Cantatas & German Cantatas before Bach - Herregeghe - 2010 [FLAC]\cd2\13 - Cantata ''Geist Und Seele Wird Verwirret'', BWV35 - 5. Sinfonia.wav
Pre-gap length 0:00:00.38
Peak level 56.5 %
Extraction speed 3.0 X
Track quality 99.9 %
Test CRC 4CC60E68
Copy CRC 4CC60E68
Accurately ripped (confidence 13) [0649AC7C] (AR v2)
Copy OK
Track 14
Filename E:\WHAT.CD\RIP EN COURS\Bach - Solo Cantatas & German Cantatas before Bach - Herregeghe - 2010 [FLAC]\cd2\14 - Cantata ''Geist Und Seele Wird Verwirret'', BWV35 - 6. Recitativo- Ach, starker Gott, lass mich.wav
Peak level 41.0 %
Extraction speed 2.4 X
Track quality 100.0 %
Test CRC 2CF76A54
Copy CRC 2CF76A54
Accurately ripped (confidence 13) [9F4D49C4] (AR v2)
Copy OK
Track 15
Filename E:\WHAT.CD\RIP EN COURS\Bach - Solo Cantatas & German Cantatas before Bach - Herregeghe - 2010 [FLAC]\cd2\15 - Cantata ''Geist Und Seele Wird Verwirret'', BWV35 - 7. Aria- Ich wunsche nur bei Gott zu Leben.wav
Peak level 78.5 %
Extraction speed 3.5 X
Track quality 100.0 %
Test CRC C45A9C3E
Copy CRC C45A9C3E
Accurately ripped (confidence 13) [DD6AE01D] (AR v2)
Copy OK
All tracks accurately ripped
No errors occurred
End of status report
---- CUETools DB Plugin V2.1.3
[CTDB TOCID: tgf2cgADyYNuj373YqyqTTBDRjk-] found, Submit result: tgf2cgADyYNuj373YqyqTTBDRjk- has been confirmed
[46276fba] (34/37) Accurately ripped
[0c1731f2] (01/37) No match
[2f2e6946] (01/37) No match
[ad4faee7] (01/37) No match
==== Log checksum 99152E453237D6CC2A18983CEDAF10160602AFD12B61B2A17F3CB932C5E74472 ====

Содержание индексной карты (.CUE)

REM GENRE Classical
REM DATE 1997
REM DISCID CC0DE50F
REM COMMENT "ExactAudioCopy v1.0b3"
PERFORMER "Philippe Herreweghe, Andreas Scholl, Peter Kooy"
TITLE "Solo Cantatas & German Cantatas before Bach"
FILE "01 - Cantata ''Vergnugte Ruh, Beliebte Seelenlust'', BWV170 - 1. Aria- Vergnugte Ruh! beliebte Seelenlust!.wav" WAVE
TRACK 01 AUDIO
TITLE "Cantata 'Vergnugte Ruh, Beliebte Seelenlust', BWV170 - 1. Aria: Vergnugte Ruh..."
PERFORMER "Philippe Herreweghe, Andreas Scholl, Peter Kooy"
ISRC FRZ149768010
INDEX 01 00:00:00
FILE "02 - Cantata ''Vergnugte Ruh, Beliebte Seelenlust'', BWV170 - 2. Recitativo- Die Welt, das Sundenhaus.wav" WAVE
TRACK 02 AUDIO
TITLE "Cantata 'Vergnugte Ruh, Beliebte Seelenlust', BWV170 - 2. Recitativo: Die Wel..."
PERFORMER "Philippe Herreweghe, Andreas Scholl, Peter Kooy"
ISRC FRZ149768020
INDEX 01 00:00:00
FILE "03 - Cantata ''Vergnugte Ruh, Beliebte Seelenlust'', BWV170 - 3. Aria- Wie jammern mich doch die verkehrten Herzen.wav" WAVE
TRACK 03 AUDIO
TITLE "Cantata 'Vergnugte Ruh, Beliebte Seelenlust', BWV170 - 3. Aria: Wie jammern m..."
PERFORMER "Philippe Herreweghe, Andreas Scholl, Peter Kooy"
ISRC FRZ149768030
INDEX 01 00:00:00
FILE "04 - Cantata ''Vergnugte Ruh, Beliebte Seelenlust'', BWV170 - 4. Recitativo- Wer sollte sich demnach.wav" WAVE
TRACK 04 AUDIO
TITLE "Cantata 'Vergnugte Ruh, Beliebte Seelenlust', BWV170 - 4. Recitativo: Wer sol..."
PERFORMER "Philippe Herreweghe, Andreas Scholl, Peter Kooy"
ISRC FRZ149768040
INDEX 01 00:00:00
FILE "05 - Cantata ''Vergnugte Ruh, Beliebte Seelenlust'', BWV170 - 5. Aria- Mir ekelt mehr zu leben.wav" WAVE
TRACK 05 AUDIO
TITLE "Cantata 'Vergnugte Ruh, Beliebte Seelenlust', BWV170 - 5. Aria: Mir ekelt meh..."
PERFORMER "Philippe Herreweghe, Andreas Scholl, Peter Kooy"
ISRC FRZ149768050
INDEX 01 00:00:00
TRACK 06 AUDIO
TITLE "Cantata 'Widerstehe Doch Der Sunde', BWV54 - 1. Aria: Wilderstehe doch der Sunde"
PERFORMER "Philippe Herreweghe, Andreas Scholl, Peter Kooy"
ISRC FRZ149768060
INDEX 00 05:33:24
FILE "06 - Cantata ''Widerstehe Doch Der Sunde'', BWV54 - 1. Aria- Wilderstehe doch der Sunde.wav" WAVE
INDEX 01 00:00:00
FILE "07 - Cantata ''Widerstehe Doch Der Sunde'', BWV54 - 2. Recitativo- Die Art verruchter Sunden.wav" WAVE
TRACK 07 AUDIO
TITLE "Cantata 'Widerstehe Doch Der Sunde', BWV54 - 2. Recitativo: Die Art verruchte..."
PERFORMER "Philippe Herreweghe, Andreas Scholl, Peter Kooy"
ISRC FRZ149768070
INDEX 01 00:00:00
FILE "08 - Cantata ''Widerstehe Doch Der Sunde'', BWV54 - 3. Aria- Wer Sunde tut, der ist vom Teufel.wav" WAVE
TRACK 08 AUDIO
TITLE "Cantata 'Widerstehe Doch Der Sunde', BWV54 - 3. Aria: Wer Sunde tut, der ist ..."
PERFORMER "Philippe Herreweghe, Andreas Scholl, Peter Kooy"
ISRC FRZ149768080
INDEX 01 00:00:00
TRACK 09 AUDIO
TITLE "Cantata 'Geist Und Seele Wird Verwirret', BWV35 - 1. Concerto"
PERFORMER "Philippe Herreweghe, Andreas Scholl, Peter Kooy"
ISRC FRZ149768090
INDEX 00 02:57:32
FILE "09 - Cantata ''Geist Und Seele Wird Verwirret'', BWV35 - 1. Concerto.wav" WAVE
INDEX 01 00:00:00
FILE "10 - Cantata ''Geist Und Seele Wird Verwirret'', BWV35 - 2. Aria- Geist und Seele wird verwirret.wav" WAVE
TRACK 10 AUDIO
TITLE "Cantata 'Geist Und Seele Wird Verwirret', BWV35 - 2. Aria: Geist und Seele wi..."
PERFORMER "Philippe Herreweghe, Andreas Scholl, Peter Kooy"
ISRC FRZ149768100
INDEX 01 00:00:00
FILE "11 - Cantata ''Geist Und Seele Wird Verwirret'', BWV35 - 3. Recitativo- Ich wundre mich.wav" WAVE
TRACK 11 AUDIO
TITLE "Cantata 'Geist Und Seele Wird Verwirret', BWV35 - 3. Recitativo: Ich wundre mich"
PERFORMER "Philippe Herreweghe, Andreas Scholl, Peter Kooy"
ISRC FRZ149768110
INDEX 01 00:00:00
FILE "12 - Cantata ''Geist Und Seele Wird Verwirret'', BWV35 - 4. Aria- Gott hat alles wohlgemacht!.wav" WAVE
TRACK 12 AUDIO
TITLE "Cantata 'Geist Und Seele Wird Verwirret', BWV35 - 4. Aria: Gott hat alles woh..."
PERFORMER "Philippe Herreweghe, Andreas Scholl, Peter Kooy"
ISRC FRZ149768120
INDEX 01 00:00:00
TRACK 13 AUDIO
TITLE "Cantata 'Geist Und Seele Wird Verwirret', BWV35 - 5. Sinfonia"
PERFORMER "Philippe Herreweghe, Andreas Scholl, Peter Kooy"
ISRC FRZ149768130
INDEX 00 03:13:49
FILE "13 - Cantata ''Geist Und Seele Wird Verwirret'', BWV35 - 5. Sinfonia.wav" WAVE
INDEX 01 00:00:00
FILE "14 - Cantata ''Geist Und Seele Wird Verwirret'', BWV35 - 6. Recitativo- Ach, starker Gott, lass mich.wav" WAVE
TRACK 14 AUDIO
TITLE "Cantata 'Geist Und Seele Wird Verwirret', BWV35 - 6. Recitativo: Ach, starker..."
PERFORMER "Philippe Herreweghe, Andreas Scholl, Peter Kooy"
ISRC FRZ149768140
INDEX 01 00:00:00
FILE "15 - Cantata ''Geist Und Seele Wird Verwirret'', BWV35 - 7. Aria- Ich wunsche nur bei Gott zu Leben.wav" WAVE
TRACK 15 AUDIO
TITLE "Cantata 'Geist Und Seele Wird Verwirret', BWV35 - 7. Aria: Ich wunsche nur be..."
PERFORMER "Philippe Herreweghe, Andreas Scholl, Peter Kooy"
ISRC FRZ149768150
INDEX 01 00:00:00

CD3Лог создания рипа

Exact Audio Copy V1.0 beta 3 from 29. August 2011
EAC extraction logfile from 7. November 2014, 18:52
Philippe Herreweghe, Andreas Scholl, Peter Kooy / Solo Cantatas & German Cantatas before Bach
Used drive : hp DVD-RAM GHB0N Adapter: 0 ID: 0
Read mode : Secure
Utilize accurate stream : Yes
Defeat audio cache : Yes
Make use of C2 pointers : No
Read offset correction : 6
Overread into Lead-In and Lead-Out : No
Fill up missing offset samples with silence : Yes
Delete leading and trailing silent blocks : No
Null samples used in CRC calculations : Yes
Used interface : Native Win32 interface for Win NT & 2000
Gap handling : Appended to previous track
Used output format : User Defined Encoder
Selected bitrate : 1024 kBit/s
Quality : High
Add ID3 tag : No
Command line compressor : C:\Program Files (x86)\Exact Audio Copy\Flac\flac.exe
Additional command line options : -8 -V -T "ARTIST=%artist%" -T "TITLE=%title%" -T "ALBUM=%albumtitle%" -T "DATE=%year%" -T "TRACKNUMBER=%tracknr%" -T "GENRE=%genre%" -T "PERFORMER=%albuminterpret%" -T "COMPOSER=%composer%" %haslyrics%--tag-from-file=LYRICS="%lyricsfile%"%haslyrics% -T "ALBUMARTIST=%albumartist%" -T "DISCNUMBER=%cdnumber%" -T "TOTALDISCS=%totalcds%" -T "TOTALTRACKS=%numtracks%" -T "COMMENT=%comment%" %source% -o %dest%
TOC of the extracted CD
Track | Start | Length | Start sector | End sector
---------------------------------------------------------
1 | 0:00.03 | 0:44.31 | 3 | 3333
2 | 0:44.34 | 0:50.19 | 3334 | 7102
3 | 1:34.53 | 2:46.48 | 7103 | 19600
4 | 4:21.26 | 1:37.25 | 19601 | 26900
5 | 5:58.51 | 3:05.25 | 26901 | 40800
6 | 9:04.01 | 1:46.74 | 40801 | 48824
7 | 10:51.00 | 1:11.40 | 48825 | 54189
8 | 12:02.40 | 2:00.24 | 54190 | 63213
9 | 14:02.64 | 1:19.07 | 63214 | 69145
10 | 15:21.71 | 1:56.53 | 69146 | 77898
11 | 17:18.49 | 3:03.69 | 77899 | 91692
12 | 20:22.43 | 1:28.45 | 91693 | 98337
13 | 21:51.13 | 1:58.13 | 98338 | 107200
14 | 23:49.26 | 3:29.12 | 107201 | 122887
15 | 27:18.38 | 4:58.31 | 122888 | 145268
16 | 32:16.69 | 2:10.67 | 145269 | 155085
17 | 34:27.61 | 1:15.38 | 155086 | 160748
18 | 35:43.24 | 0:26.32 | 160749 | 162730
19 | 36:09.56 | 1:44.16 | 162731 | 170546
20 | 37:53.72 | 1:48.37 | 170547 | 178683
21 | 39:42.34 | 0:59.64 | 178684 | 183172
22 | 40:42.23 | 2:46.55 | 183173 | 195677
23 | 43:29.03 | 4:47.32 | 195678 | 217234
24 | 48:16.35 | 1:46.28 | 217235 | 225212
25 | 50:02.63 | 1:43.73 | 225213 | 233010
26 | 51:46.61 | 1:49.32 | 233011 | 241217
27 | 53:36.18 | 0:38.51 | 241218 | 244118
28 | 54:14.69 | 2:01.61 | 244119 | 253254
29 | 56:16.55 | 3:42.61 | 253255 | 269965
30 | 59:59.41 | 1:42.09 | 269966 | 277624
31 | 61:41.50 | 0:51.59 | 277625 | 281508
32 | 62:33.34 | 4:10.59 | 281509 | 300317
33 | 66:44.18 | 0:47.20 | 300318 | 303862
34 | 67:31.38 | 4:11.26 | 303863 | 322713
35 | 71:42.64 | 0:53.53 | 322714 | 326741
36 | 72:36.42 | 2:58.57 | 326742 | 340148
Track 1
Filename E:\WHAT.CD\RIP EN COURS\Bach - Solo Cantatas & German Cantatas before Bach - Herregeghe - 2010 [FLAC]\cd3\01 - Dominus illuminatio mea - I. Sinfonia.wav
Pre-gap length 0:00:02.04
Peak level 15.2 %
Extraction speed 0.6 X
Track quality 100.0 %
Test CRC 182076F5
Copy CRC 182076F5
Accurately ripped (confidence 12) [D00A9116] (AR v2)
Copy OK
Track 2
Filename E:\WHAT.CD\RIP EN COURS\Bach - Solo Cantatas & German Cantatas before Bach - Herregeghe - 2010 [FLAC]\cd3\02 - Dominus illuminatio mea - II. Chor; Dominus illuminatio mea.wav
Peak level 52.1 %
Extraction speed 0.7 X
Track quality 100.0 %
Test CRC EE37A19D
Copy CRC EE37A19D
Accurately ripped (confidence 12) [83471A3C] (AR v2)
Copy OK
Track 3
Filename E:\WHAT.CD\RIP EN COURS\Bach - Solo Cantatas & German Cantatas before Bach - Herregeghe - 2010 [FLAC]\cd3\03 - Dominus illuminatio mea - III. Chor; Dominus protector vitae meae.wav
Peak level 58.7 %
Extraction speed 0.9 X
Track quality 99.9 %
Test CRC 71B83CA4
Copy CRC 71B83CA4
Accurately ripped (confidence 12) [12D0B9AC] (AR v2)
Copy OK
Track 4
Filename E:\WHAT.CD\RIP EN COURS\Bach - Solo Cantatas & German Cantatas before Bach - Herregeghe - 2010 [FLAC]\cd3\04 - Dominus illuminatio mea - IV. Chor; Qui tribulant inimici mei.wav
Peak level 44.9 %
Extraction speed 1.0 X
Track quality 100.0 %
Test CRC 48C5BA3D
Copy CRC 48C5BA3D
Accurately ripped (confidence 12) [D2B4B808] (AR v2)
Copy OK
Track 5
Filename E:\WHAT.CD\RIP EN COURS\Bach - Solo Cantatas & German Cantatas before Bach - Herregeghe - 2010 [FLAC]\cd3\05 - Dominus illuminatio mea - V. Solo und Chor; Si consistant adversum me castra.wav
Peak level 52.4 %
Extraction speed 1.2 X
Track quality 100.0 %
Test CRC 5EBB7916
Copy CRC 5EBB7916
Accurately ripped (confidence 12) [1763787C] (AR v2)
Copy OK
Track 6
Filename E:\WHAT.CD\RIP EN COURS\Bach - Solo Cantatas & German Cantatas before Bach - Herregeghe - 2010 [FLAC]\cd3\06 - Wend' ab deinem Zorn - I. Wend' ab deinen Zorn.wav
Peak level 28.2 %
Extraction speed 1.1 X
Track quality 100.0 %
Test CRC 6C8BAE50
Copy CRC 6C8BAE50
Accurately ripped (confidence 12) [9028F624] (AR v2)
Copy OK
Track 7
Filename E:\WHAT.CD\RIP EN COURS\Bach - Solo Cantatas & German Cantatas before Bach - Herregeghe - 2010 [FLAC]\cd3\07 - Wend' ab deinem Zorn - II. Denn so du wolltest nach Verdienst.wav
Peak level 29.5 %
Extraction speed 1.0 X
Track quality 100.0 %
Test CRC 2F2D1886
Copy CRC 2F2D1886
Accurately ripped (confidence 12) [E181771A] (AR v2)
Copy OK
Track 8
Filename E:\WHAT.CD\RIP EN COURS\Bach - Solo Cantatas & German Cantatas before Bach - Herregeghe - 2010 [FLAC]\cd3\08 - Wend' ab deinem Zorn - III. Vergieb, Herr, gnädig, unsre große Schulde.wav
Peak level 38.7 %
Extraction speed 1.2 X
Track quality 100.0 %
Test CRC C61F3C43
Copy CRC C61F3C43
Accurately ripped (confidence 12) [8C7DB944] (AR v2)
Copy OK
Track 9
Filename E:\WHAT.CD\RIP EN COURS\Bach - Solo Cantatas & German Cantatas before Bach - Herregeghe - 2010 [FLAC]\cd3\09 - Wend' ab deinem Zorn - IV. Sind wir doch arme Würmlein.wav
Peak level 41.7 %
Extraction speed 1.1 X
Track quality 100.0 %
Test CRC 2313830C
Copy CRC 2313830C
Accurately ripped (confidence 12) [71170DDD] (AR v2)
Copy OK
Track 10
Filename E:\WHAT.CD\RIP EN COURS\Bach - Solo Cantatas & German Cantatas before Bach - Herregeghe - 2010 [FLAC]\cd3\10 - Wend' ab deinem Zorn - V. Sieh' an deines Sohn's Kreuz und bitter Leiden.wav
Peak level 16.8 %
Extraction speed 1.2 X
Track quality 100.0 %
Test CRC FE666FA5
Copy CRC FE666FA5
Accurately ripped (confidence 12) [A175092D] (AR v2)
Copy OK
Track 11
Filename E:\WHAT.CD\RIP EN COURS\Bach - Solo Cantatas & German Cantatas before Bach - Herregeghe - 2010 [FLAC]\cd3\11 - Wend' ab deinem Zorn - VI. Darum, ach Vater, laß uns nicht verderben.wav
Peak level 68.7 %
Extraction speed 1.2 X
Track quality 99.9 %
Test CRC DC14EE87
Copy CRC DC14EE87
Accurately ripped (confidence 11) [933BBC2C] (AR v2)
Copy OK
Track 12
Filename E:\WHAT.CD\RIP EN COURS\Bach - Solo Cantatas & German Cantatas before Bach - Herregeghe - 2010 [FLAC]\cd3\12 - Ein feste Burg ist unser Gott - I. Sinfonia.wav
Peak level 19.1 %
Extraction speed 0.9 X
Track quality 99.8 %
Test CRC 801E09D7
Copy CRC 801E09D7
Accurately ripped (confidence 12) [4B47D02A] (AR v2)
Copy OK
Track 13
Filename E:\WHAT.CD\RIP EN COURS\Bach - Solo Cantatas & German Cantatas before Bach - Herregeghe - 2010 [FLAC]\cd3\13 - I. Ein feste Burg ist unser Gott.wav
Peak level 33.1 %
Extraction speed 1.1 X
Track quality 99.9 %
Test CRC B518E91C
Copy CRC B518E91C
Accurately ripped (confidence 12) [24A86B0A] (AR v2)
Copy OK
Track 14
Filename E:\WHAT.CD\RIP EN COURS\Bach - Solo Cantatas & German Cantatas before Bach - Herregeghe - 2010 [FLAC]\cd3\14 - II. Ein feste Burg ist unser Gott - Mit unsrer Macht ist nichts gethan.wav
Peak level 50.8 %
Extraction speed 1.4 X
Track quality 99.9 %
Test CRC B70C101C
Copy CRC B70C101C
Accurately ripped (confidence 12) [27D91FC2] (AR v2)
Copy OK
Track 15
Filename E:\WHAT.CD\RIP EN COURS\Bach - Solo Cantatas & German Cantatas before Bach - Herregeghe - 2010 [FLAC]\cd3\15 - III. Ein feste Burg ist unser Gott - Und wenn die Welt voll Teufel wär.wav
Peak level 56.8 %
Extraction speed 1.7 X
Track quality 100.0 %
Test CRC 3EA5F8D6
Copy CRC 3EA5F8D6
Accurately ripped (confidence 12) [5E8DE1F0] (AR v2)
Copy OK
Track 16
Filename E:\WHAT.CD\RIP EN COURS\Bach - Solo Cantatas & German Cantatas before Bach - Herregeghe - 2010 [FLAC]\cd3\16 - I. Sonate und Chor; Gott, sei mir gnädig.wav
Peak level 32.1 %
Extraction speed 1.5 X
Track quality 100.0 %
Test CRC C186D64C
Copy CRC C186D64C
Accurately ripped (confidence 12) [C182638F] (AR v2)
Copy OK
Track 17
Filename E:\WHAT.CD\RIP EN COURS\Bach - Solo Cantatas & German Cantatas before Bach - Herregeghe - 2010 [FLAC]\cd3\17 - II. Arie; Wasche mich wohl.wav
Peak level 33.1 %
Extraction speed 1.4 X
Track quality 100.0 %
Test CRC F3B97518
Copy CRC F3B97518
Accurately ripped (confidence 12) [BA88CAB7] (AR v2)
Copy OK
Track 18
Filename E:\WHAT.CD\RIP EN COURS\Bach - Solo Cantatas & German Cantatas before Bach - Herregeghe - 2010 [FLAC]\cd3\18 - III. Rezitativ; Denn ich erkenne meine Missetat.wav
Peak level 14.4 %
Extraction speed 0.8 X
Track quality 100.0 %
Test CRC E79F81B9
Copy CRC E79F81B9
Accurately ripped (confidence 12) [E3CCB5C9] (AR v2)
Copy OK
Track 19
Filename E:\WHAT.CD\RIP EN COURS\Bach - Solo Cantatas & German Cantatas before Bach - Herregeghe - 2010 [FLAC]\cd3\19 - IV. Rezitativ und Chor; An dir allein, hab ich gesündigt.wav
Peak level 52.7 %
Extraction speed 1.2 X
Track quality 99.8 %
Test CRC 83DCBC3D
Copy CRC 83DCBC3D
Accurately ripped (confidence 12) [32B75CF8] (AR v2)
Copy OK
Track 20
Filename E:\WHAT.CD\RIP EN COURS\Bach - Solo Cantatas & German Cantatas before Bach - Herregeghe - 2010 [FLAC]\cd3\20 - V. Arioso; Siehe, ich bin aus sündlichem Samen gezeuget.wav
Peak level 54.5 %
Extraction speed 1.5 X
Track quality 100.0 %
Test CRC 51AFAA5E
Copy CRC 51AFAA5E
Accurately ripped (confidence 12) [A927D8D2] (AR v2)
Copy OK
Track 21
Filename E:\WHAT.CD\RIP EN COURS\Bach - Solo Cantatas & German Cantatas before Bach - Herregeghe - 2010 [FLAC]\cd3\21 - VI. Chor; Entsündige mich mit Isopen.wav
Peak level 53.0 %
Extraction speed 1.3 X
Track quality 100.0 %
Test CRC F27C6E92
Copy CRC F27C6E92
Accurately ripped (confidence 12) [E997274D] (AR v2)
Copy OK
Track 22
Filename E:\WHAT.CD\RIP EN COURS\Bach - Solo Cantatas & German Cantatas before Bach - Herregeghe - 2010 [FLAC]\cd3\22 - VII. Arioso und Chor; Laß mich hören Freud und Wonne.wav
Peak level 59.0 %
Extraction speed 1.8 X
Track quality 100.0 %
Test CRC B5DA9DF5
Copy CRC B5DA9DF5
Accurately ripped (confidence 12) [B93B0F14] (AR v2)
Copy OK
Track 23
Filename E:\WHAT.CD\RIP EN COURS\Bach - Solo Cantatas & German Cantatas before Bach - Herregeghe - 2010 [FLAC]\cd3\23 - I. Sinfonia und Chor; Ich liege und schlafe.wav
Peak level 37.0 %
Extraction speed 2.0 X
Track quality 100.0 %
Test CRC B32D438E
Copy CRC B32D438E
Accurately ripped (confidence 12) [60C737BC] (AR v2)
Copy OK
Track 24
Filename E:\WHAT.CD\RIP EN COURS\Bach - Solo Cantatas & German Cantatas before Bach - Herregeghe - 2010 [FLAC]\cd3\24 - II. Arie; Ich hab, Gottlob, das mein vollbracht.wav
Peak level 27.5 %
Extraction speed 1.7 X
Track quality 100.0 %
Test CRC B1D1F905
Copy CRC B1D1F905
Accurately ripped (confidence 12) [443798DD] (AR v2)
Copy OK
Track 25
Filename E:\WHAT.CD\RIP EN COURS\Bach - Solo Cantatas & German Cantatas before Bach - Herregeghe - 2010 [FLAC]\cd3\25 - III. Ritornello.wav
Peak level 20.3 %
Extraction speed 1.7 X
Track quality 100.0 %
Test CRC 33137F19
Copy CRC 33137F19
Accurately ripped (confidence 12) [96CC7B1C] (AR v2)
Copy OK
Track 26
Filename E:\WHAT.CD\RIP EN COURS\Bach - Solo Cantatas & German Cantatas before Bach - Herregeghe - 2010 [FLAC]\cd3\26 - IV. Duett; In Jesu Namen schlaf ich ein.wav
Peak level 24.4 %
Extraction speed 1.7 X
Track quality 100.0 %
Test CRC 17F7639F
Copy CRC 17F7639F
Accurately ripped (confidence 12) [473E4A76] (AR v2)
Copy OK
Track 27
Filename E:\WHAT.CD\RIP EN COURS\Bach - Solo Cantatas & German Cantatas before Bach - Herregeghe - 2010 [FLAC]\cd3\27 - V. Ritornello.wav
Peak level 26.1 %
Extraction speed 1.2 X
Track quality 100.0 %
Test CRC 9E6751B1
Copy CRC 9E6751B1
Accurately ripped (confidence 12) [2EA7020A] (AR v2)
Copy OK
Track 28
Filename E:\WHAT.CD\RIP EN COURS\Bach - Solo Cantatas & German Cantatas before Bach - Herregeghe - 2010 [FLAC]\cd3\28 - VI. Arie; In Jesu Namen fahr ich hin.wav
Peak level 38.3 %
Extraction speed 1.5 X
Track quality 99.9 %
Test CRC 9962ED19
Copy CRC 9962ED19
Accurately ripped (confidence 12) [BB943FCE] (AR v2)
Copy OK
Track 29
Filename E:\WHAT.CD\RIP EN COURS\Bach - Solo Cantatas & German Cantatas before Bach - Herregeghe - 2010 [FLAC]\cd3\29 - VII. Sinfonia und Chor; Ich liege und schlafe.wav
Peak level 57.7 %
Extraction speed 2.1 X
Track quality 100.0 %
Test CRC 1E96446D
Copy CRC 1E96446D
Accurately ripped (confidence 12) [F332D120] (AR v2)
Copy OK
Track 30
Filename E:\WHAT.CD\RIP EN COURS\Bach - Solo Cantatas & German Cantatas before Bach - Herregeghe - 2010 [FLAC]\cd3\30 - I. Chor; Herr, die Wasserströme erheben sich.wav
Peak level 75.9 %
Extraction speed 1.8 X
Track quality 100.0 %
Test CRC B0F46FB8
Copy CRC B0F46FB8
Accurately ripped (confidence 12) [B8AA52F8] (AR v2)
Copy OK
Track 31
Filename E:\WHAT.CD\RIP EN COURS\Bach - Solo Cantatas & German Cantatas before Bach - Herregeghe - 2010 [FLAC]\cd3\31 - II. Rezitativ; Ach Christi Schiffchen leidet Not.wav
Peak level 22.5 %
Extraction speed 1.0 X
Track quality 99.7 %
Test CRC E78B248B
Copy CRC E78B248B
Accurately ripped (confidence 12) [955F77D2] (AR v2)
Copy OK
Track 32
Filename E:\WHAT.CD\RIP EN COURS\Bach - Solo Cantatas & German Cantatas before Bach - Herregeghe - 2010 [FLAC]\cd3\32 - III. Arie; Ach, wie lange soll der kleinen Herde bange.wav
Peak level 23.7 %
Extraction speed 2.2 X
Track quality 100.0 %
Test CRC D3A122CB
Copy CRC D3A122CB
Accurately ripped (confidence 13) [4E9921F8] (AR v2)
Copy OK
Track 33
Filename E:\WHAT.CD\RIP EN COURS\Bach - Solo Cantatas & German Cantatas before Bach - Herregeghe - 2010 [FLAC]\cd3\33 - IV. Rezitativ; So schwach ist oft des Glaubens Licht.wav
Peak level 29.5 %
Extraction speed 1.4 X
Track quality 100.0 %
Test CRC C8AE452B
Copy CRC C8AE452B
Accurately ripped (confidence 12) [084B53E2] (AR v2)
Copy OK
Track 34
Filename E:\WHAT.CD\RIP EN COURS\Bach - Solo Cantatas & German Cantatas before Bach - Herregeghe - 2010 [FLAC]\cd3\34 - V. Arie; Jesus hemmt die stolzen Wellen.wav
Peak level 49.8 %
Extraction speed 2.0 X
Track quality 99.9 %
Test CRC E3E4C37D
Copy CRC E3E4C37D
Accurately ripped (confidence 10) [C84919AE] (AR v2)
Copy OK
Track 35
Filename E:\WHAT.CD\RIP EN COURS\Bach - Solo Cantatas & German Cantatas before Bach - Herregeghe - 2010 [FLAC]\cd3\35 - VI. Rezitativ; So fasse dich, du kleine Schaar.wav
Peak level 46.8 %
Extraction speed 1.5 X
Track quality 100.0 %
Test CRC D5ECA566
Copy CRC D5ECA566
Accurately ripped (confidence 11) [E05FF043] (AR v2)
Copy OK
Track 36
Filename E:\WHAT.CD\RIP EN COURS\Bach - Solo Cantatas & German Cantatas before Bach - Herregeghe - 2010 [FLAC]\cd3\36 - VII. Choral; Was bist du so hochbetrübet.wav
Peak level 59.6 %
Extraction speed 2.3 X
Track quality 100.0 %
Test CRC DB3E74F8
Copy CRC DB3E74F8
Accurately ripped (confidence 12) [596A7A1E] (AR v2)
Copy OK
All tracks accurately ripped
No errors occurred
End of status report
==== Log checksum 01E60AA9D77120CAF6C40128D16FAEEE316E8E31FE36279E4E0A48DBD8DED6C1 ====

Содержание индексной карты (.CUE)

REM GENRE classical
REM DATE 2000
REM DISCID D911B724
REM COMMENT "ExactAudioCopy v1.0b3"
PERFORMER "Philippe Herreweghe, Andreas Scholl, Peter Kooy"
TITLE "Solo Cantatas & German Cantatas before Bach"
FILE "01 - Dominus illuminatio mea - I. Sinfonia.wav" WAVE
TRACK 01 AUDIO
TITLE "Dominus illuminatio mea - I. Sinfonia"
PERFORMER "Philippe Herreweghe, Andreas Scholl, Peter Kooy"
ISRC FRZ149912010
PREGAP 00:00:03
INDEX 01 00:00:00
FILE "02 - Dominus illuminatio mea - II. Chor; Dominus illuminatio mea.wav" WAVE
TRACK 02 AUDIO
TITLE "Dominus illuminatio mea - II. Chor; Dominus illuminatio mea"
PERFORMER "Philippe Herreweghe, Andreas Scholl, Peter Kooy"
ISRC FRZ149912020
INDEX 01 00:00:00
FILE "03 - Dominus illuminatio mea - III. Chor; Dominus protector vitae meae.wav" WAVE
TRACK 03 AUDIO
TITLE "Dominus illuminatio mea - III. Chor; Dominus protector vitae meae"
PERFORMER "Philippe Herreweghe, Andreas Scholl, Peter Kooy"
ISRC FRZ149912030
INDEX 01 00:00:00
FILE "04 - Dominus illuminatio mea - IV. Chor; Qui tribulant inimici mei.wav" WAVE
TRACK 04 AUDIO
TITLE "Dominus illuminatio mea - IV. Chor; Qui tribulant inimici mei"
PERFORMER "Philippe Herreweghe, Andreas Scholl, Peter Kooy"
ISRC FRZ149912040
INDEX 01 00:00:00
FILE "05 - Dominus illuminatio mea - V. Solo und Chor; Si consistant adversum me castra.wav" WAVE
TRACK 05 AUDIO
TITLE "Dominus illuminatio mea - V. Solo und Chor; Si consistant adversum me castra"
PERFORMER "Philippe Herreweghe, Andreas Scholl, Peter Kooy"
ISRC FRZ149912050
INDEX 01 00:00:00
FILE "06 - Wend' ab deinem Zorn - I. Wend' ab deinen Zorn.wav" WAVE
TRACK 06 AUDIO
TITLE "Wend' ab deinem Zorn - I. Wend' ab deinen Zorn"
PERFORMER "Philippe Herreweghe, Andreas Scholl, Peter Kooy"
ISRC FRZ149912060
INDEX 01 00:00:00
FILE "07 - Wend' ab deinem Zorn - II. Denn so du wolltest nach Verdienst.wav" WAVE
TRACK 07 AUDIO
TITLE "Wend' ab deinem Zorn - II. Denn so du wolltest nach Verdienst"
PERFORMER "Philippe Herreweghe, Andreas Scholl, Peter Kooy"
ISRC FRZ149912070
INDEX 01 00:00:00
FILE "08 - Wend' ab deinem Zorn - III. Vergieb, Herr, gnдdig, unsre groЯe Schulde.wav" WAVE
TRACK 08 AUDIO
TITLE "Wend' ab deinem Zorn - III. Vergieb, Herr, gnдdig, unsre groЯe Schulde"
PERFORMER "Philippe Herreweghe, Andreas Scholl, Peter Kooy"
ISRC FRZ149912080
INDEX 01 00:00:00
FILE "09 - Wend' ab deinem Zorn - IV. Sind wir doch arme Wьrmlein.wav" WAVE
TRACK 09 AUDIO
TITLE "Wend' ab deinem Zorn - IV. Sind wir doch arme Wьrmlein"
PERFORMER "Philippe Herreweghe, Andreas Scholl, Peter Kooy"
ISRC FRZ149912090
INDEX 01 00:00:00
FILE "10 - Wend' ab deinem Zorn - V. Sieh' an deines Sohn's Kreuz und bitter Leiden.wav" WAVE
TRACK 10 AUDIO
TITLE "Wend' ab deinem Zorn - V. Sieh' an deines Sohn's Kreuz und bitter Leiden"
PERFORMER "Philippe Herreweghe, Andreas Scholl, Peter Kooy"
ISRC FRZ149912100
INDEX 01 00:00:00
FILE "11 - Wend' ab deinem Zorn - VI. Darum, ach Vater, laЯ uns nicht verderben.wav" WAVE
TRACK 11 AUDIO
TITLE "Wend' ab deinem Zorn - VI. Darum, ach Vater, laЯ uns nicht verderben"
PERFORMER "Philippe Herreweghe, Andreas Scholl, Peter Kooy"
ISRC FRZ149912110
INDEX 01 00:00:00
FILE "12 - Ein feste Burg ist unser Gott - I. Sinfonia.wav" WAVE
TRACK 12 AUDIO
TITLE "Ein feste Burg ist unser Gott - I. Sinfonia"
PERFORMER "Philippe Herreweghe, Andreas Scholl, Peter Kooy"
ISRC FRZ149912120
INDEX 01 00:00:00
FILE "13 - I. Ein feste Burg ist unser Gott.wav" WAVE
TRACK 13 AUDIO
TITLE "I. Ein feste Burg ist unser Gott"
PERFORMER "Philippe Herreweghe, Andreas Scholl, Peter Kooy"
ISRC FRZ149912130
INDEX 01 00:00:00
FILE "14 - II. Ein feste Burg ist unser Gott - Mit unsrer Macht ist nichts gethan.wav" WAVE
TRACK 14 AUDIO
TITLE "II. Ein feste Burg ist unser Gott - Mit unsrer Macht ist nichts gethan"
PERFORMER "Philippe Herreweghe, Andreas Scholl, Peter Kooy"
ISRC FRZ149912140
INDEX 01 00:00:00
FILE "15 - III. Ein feste Burg ist unser Gott - Und wenn die Welt voll Teufel wдr.wav" WAVE
TRACK 15 AUDIO
TITLE "III. Ein feste Burg ist unser Gott - Und wenn die Welt voll Teufel wдr"
PERFORMER "Philippe Herreweghe, Andreas Scholl, Peter Kooy"
ISRC FRZ149912150
INDEX 01 00:00:00
FILE "16 - I. Sonate und Chor; Gott, sei mir gnдdig.wav" WAVE
TRACK 16 AUDIO
TITLE "I. Sonate und Chor; Gott, sei mir gnдdig"
PERFORMER "Philippe Herreweghe, Andreas Scholl, Peter Kooy"
ISRC FRZ149912160
INDEX 01 00:00:00
FILE "17 - II. Arie; Wasche mich wohl.wav" WAVE
TRACK 17 AUDIO
TITLE "II. Arie; Wasche mich wohl"
PERFORMER "Philippe Herreweghe, Andreas Scholl, Peter Kooy"
ISRC FRZ149912170
INDEX 01 00:00:00
FILE "18 - III. Rezitativ; Denn ich erkenne meine Missetat.wav" WAVE
TRACK 18 AUDIO
TITLE "III. Rezitativ; Denn ich erkenne meine Missetat"
PERFORMER "Philippe Herreweghe, Andreas Scholl, Peter Kooy"
ISRC FRZ149912180
INDEX 01 00:00:00
FILE "19 - IV. Rezitativ und Chor; An dir allein, hab ich gesьndigt.wav" WAVE
TRACK 19 AUDIO
TITLE "IV. Rezitativ und Chor; An dir allein, hab ich gesьndigt"
PERFORMER "Philippe Herreweghe, Andreas Scholl, Peter Kooy"
ISRC FRZ149912190
INDEX 01 00:00:00
FILE "20 - V. Arioso; Siehe, ich bin aus sьndlichem Samen gezeuget.wav" WAVE
TRACK 20 AUDIO
TITLE "V. Arioso; Siehe, ich bin aus sьndlichem Samen gezeuget"
PERFORMER "Philippe Herreweghe, Andreas Scholl, Peter Kooy"
ISRC FRZ149912190
INDEX 01 00:00:00
FILE "21 - VI. Chor; Entsьndige mich mit Isopen.wav" WAVE
TRACK 21 AUDIO
TITLE "VI. Chor; Entsьndige mich mit Isopen"
PERFORMER "Philippe Herreweghe, Andreas Scholl, Peter Kooy"
ISRC FRZ149912210
INDEX 01 00:00:00
FILE "22 - VII. Arioso und Chor; LaЯ mich hцren Freud und Wonne.wav" WAVE
TRACK 22 AUDIO
TITLE "VII. Arioso und Chor; LaЯ mich hцren Freud und Wonne"
PERFORMER "Philippe Herreweghe, Andreas Scholl, Peter Kooy"
ISRC FRZ149912220
INDEX 01 00:00:00
FILE "23 - I. Sinfonia und Chor; Ich liege und schlafe.wav" WAVE
TRACK 23 AUDIO
TITLE "I. Sinfonia und Chor; Ich liege und schlafe"
PERFORMER "Philippe Herreweghe, Andreas Scholl, Peter Kooy"
ISRC FRZ149912230
INDEX 01 00:00:00
FILE "24 - II. Arie; Ich hab, Gottlob, das mein vollbracht.wav" WAVE
TRACK 24 AUDIO
TITLE "II. Arie; Ich hab, Gottlob, das mein vollbracht"
PERFORMER "Philippe Herreweghe, Andreas Scholl, Peter Kooy"
ISRC FRZ149912240
INDEX 01 00:00:00
FILE "25 - III. Ritornello.wav" WAVE
TRACK 25 AUDIO
TITLE "III. Ritornello"
PERFORMER "Philippe Herreweghe, Andreas Scholl, Peter Kooy"
ISRC FRZ149912250
INDEX 01 00:00:00
FILE "26 - IV. Duett; In Jesu Namen schlaf ich ein.wav" WAVE
TRACK 26 AUDIO
TITLE "IV. Duett; In Jesu Namen schlaf ich ein"
PERFORMER "Philippe Herreweghe, Andreas Scholl, Peter Kooy"
ISRC FRZ149912260
INDEX 01 00:00:00
FILE "27 - V. Ritornello.wav" WAVE
TRACK 27 AUDIO
TITLE "V. Ritornello"
PERFORMER "Philippe Herreweghe, Andreas Scholl, Peter Kooy"
ISRC FRZ149912270
INDEX 01 00:00:00
FILE "28 - VI. Arie; In Jesu Namen fahr ich hin.wav" WAVE
TRACK 28 AUDIO
TITLE "VI. Arie; In Jesu Namen fahr ich hin"
PERFORMER "Philippe Herreweghe, Andreas Scholl, Peter Kooy"
ISRC FRZ149912280
INDEX 01 00:00:00
FILE "29 - VII. Sinfonia und Chor; Ich liege und schlafe.wav" WAVE
TRACK 29 AUDIO
TITLE "VII. Sinfonia und Chor; Ich liege und schlafe"
PERFORMER "Philippe Herreweghe, Andreas Scholl, Peter Kooy"
ISRC FRZ149912290
INDEX 01 00:00:00
FILE "30 - I. Chor; Herr, die Wasserstrцme erheben sich.wav" WAVE
TRACK 30 AUDIO
TITLE "I. Chor; Herr, die Wasserstrцme erheben sich"
PERFORMER "Philippe Herreweghe, Andreas Scholl, Peter Kooy"
ISRC FRZ149912290
INDEX 01 00:00:00
FILE "31 - II. Rezitativ; Ach Christi Schiffchen leidet Not.wav" WAVE
TRACK 31 AUDIO
TITLE "II. Rezitativ; Ach Christi Schiffchen leidet Not"
PERFORMER "Philippe Herreweghe, Andreas Scholl, Peter Kooy"
ISRC FRZ149912310
INDEX 01 00:00:00
FILE "32 - III. Arie; Ach, wie lange soll der kleinen Herde bange.wav" WAVE
TRACK 32 AUDIO
TITLE "III. Arie; Ach, wie lange soll der kleinen Herde bange"
PERFORMER "Philippe Herreweghe, Andreas Scholl, Peter Kooy"
ISRC FRZ149912320
INDEX 01 00:00:00
FILE "33 - IV. Rezitativ; So schwach ist oft des Glaubens Licht.wav" WAVE
TRACK 33 AUDIO
TITLE "IV. Rezitativ; So schwach ist oft des Glaubens Licht"
PERFORMER "Philippe Herreweghe, Andreas Scholl, Peter Kooy"
ISRC FRZ149912320
INDEX 01 00:00:00
FILE "34 - V. Arie; Jesus hemmt die stolzen Wellen.wav" WAVE
TRACK 34 AUDIO
TITLE "V. Arie; Jesus hemmt die stolzen Wellen"
PERFORMER "Philippe Herreweghe, Andreas Scholl, Peter Kooy"
ISRC FRZ149912340
INDEX 01 00:00:00
FILE "35 - VI. Rezitativ; So fasse dich, du kleine Schaar.wav" WAVE
TRACK 35 AUDIO
TITLE "VI. Rezitativ; So fasse dich, du kleine Schaar"
PERFORMER "Philippe Herreweghe, Andreas Scholl, Peter Kooy"
ISRC FRZ149912350
INDEX 01 00:00:00
FILE "36 - VII. Choral; Was bist du so hochbetrьbet.wav" WAVE
TRACK 36 AUDIO
TITLE "VII. Choral; Was bist du so hochbetrьbet"
PERFORMER "Philippe Herreweghe, Andreas Scholl, Peter Kooy"
ISRC FRZ149912360
INDEX 01 00:00:00
[teatrix.ru].t19421.torrent 
Торрент: Зарегистрирован [ 2016-03-18 12:46 ] · 61F35166F95A47A3E85E8791B53BEEA2CEAABA9B

Скачать .torrent

Скачать

23 KB

Статус: проверено
Скачан: 0 раз
Размер: 802 MB
terms.php



Быстрый ответ

Имя:

      
Для отправки сообщений необходимо включить JavaScript
Показать сообщения:    

Текущее время: 05-Дек 13:34

Часовой пояс: UTC + 3


Вы можете начинать темы
Вы можете отвечать на сообщения
Вы не можете редактировать свои сообщения
Вы не можете удалять свои сообщения
Вы не можете голосовать в опросах
Вы не можете прикреплять файлы к сообщениям
Вы можете скачивать файлы