(Baroque oratorio) Marc-Antoine Charpentier - Un Oratorio de Noel (Les Arts Florissant, William Christie) - 1983, FLAC (image+.cue) lossless


Статистика раздачи [Обновить пиров]
Размер:  350 MB   |    Зарегистрирован:  8 месяцев 16 дней   |    Скачан:  1 раз

Полного источника не было: 3 дня

 
   
 
 
 

[Цитировать]

Marc-Antoine Charpentier - Un Oratorio de Noel

Жанр: Baroque oratorio
Страна-производитель диска: Made in W. Germany
Год издания диска: 1983
Издатель (лейбл): harmonia mundi s.a.
Номер по каталогу: HMC 905130
Дата записи: 1983
Аудиокодек: FLAC
Тип рипа: image+.cue
Битрейт аудио: lossless
Продолжительность: 48'25
Источник: релизер
сайт-источник/ник/другое: Saoshya and Meeting in Music blogspot
Наличие сканов в содержимом раздачи: да
Треклист:

скрытый текст

01. In nativitatem Domini canticum H.416, Première partie 10:55
02. La Nuit 04:24
03. Deuxième partie 13:59
04. Sur la Naissance de Notre Seigneur Jésus-Christ H.482, Scène 1 08:09
05. Scène 2 11:20
Исполнители:

скрытый текст

Marc-Antoine Charpentier (1645-1704)
Un Oratorio de Noël
Les Arts Florissants
William Christie дирижёр

Лог создания рипа

Exact Audio Copy V0.99 prebeta 4 from 23. January 2008
EAC extraction logfile from 10. December 2013, 2:27
Les Arts Florissants, William Christie / Marc-Antoine Charpentier - Un Oratorio de Noлl
Used drive : PHILIPS DVD+-RW DVD8801 Adapter: 0 ID: 1
Read mode : Secure
Utilize accurate stream : Yes
Defeat audio cache : Yes
Make use of C2 pointers : No
Read offset correction : 618
Overread into Lead-In and Lead-Out : No
Fill up missing offset samples with silence : Yes
Delete leading and trailing silent blocks : No
Null samples used in CRC calculations : Yes
Used interface : Native Win32 interface for Win NT & 2000
Used output format : User Defined Encoder
Selected bitrate : 1024 kBit/s
Quality : High
Add ID3 tag : No
Command line compressor : C:\Program Files\REACT\REACT.exe
Additional command line options : REACT %o %s %d "%a" "%g" "%t" "%n" "%x" "%y" "%m" "%e" "%f" "%b" %r
TOC of the extracted CD
Track | Start | Length | Start sector | End sector
---------------------------------------------------------
1 | 0:00.33 | 10:55.62 | 33 | 49219
2 | 10:56.20 | 4:24.63 | 49220 | 69082
3 | 15:21.08 | 13:59.50 | 69083 | 132057
4 | 29:20.58 | 8:09.37 | 132058 | 168769
5 | 37:30.20 | 11:20.13 | 168770 | 219782
Range status and errors
Selected range
Filename L:\Stereo Culture Square\HMC 905130 Marc-Antoine Charpentier - Un Oratorio de Noel (Les Arts Florissants, William Christie)\CDImage\Charpentier - Un Oratorio de Noel - Les Arts Florissants.wav
Peak level 95.5 %
Range quality 99.9 %
Test CRC 59CDB739
Copy CRC 59CDB739
Copy OK
No errors occurred
AccurateRip summary
Track 1 accurately ripped (confidence 3) [EEC6D435]
Track 2 accurately ripped (confidence 4) [28109660]
Track 3 cannot be verified as accurate (confidence 4) [8CFE423C], AccurateRip returned [4FF32042]
Track 4 cannot be verified as accurate (confidence 4) [25B8A3B8], AccurateRip returned [DA3786D5]
Track 5 accurately ripped (confidence 3) [9CFA7295]
3 track(s) accurately ripped
2 track(s) could not be verified as accurate
Some tracks could not be verified as accurate
End of status report
[teatrix.ru].t19422.torrent 
Торрент: Зарегистрирован [ 2016-03-18 12:36 ] · AABEC56DCB586F51877BDEB7E6FDE9B923A54AF4

Скачать .torrent

Скачать

16 KB

Статус: проверено
Скачан: 1 раз
Размер: 350 MB
terms.php



Быстрый ответ

Имя:

      
Для отправки сообщений необходимо включить JavaScript
Показать сообщения:    

Текущее время: 04-Дек 02:56

Часовой пояс: UTC + 3


Вы можете начинать темы
Вы можете отвечать на сообщения
Вы не можете редактировать свои сообщения
Вы не можете удалять свои сообщения
Вы не можете голосовать в опросах
Вы не можете прикреплять файлы к сообщениям
Вы можете скачивать файлы